Today is a free download without charge Download

Discovery: Выжить вместе [3 сезон] [8 из 9] / Dual Survival (2013) HDTVRip [Eng]

Reply to topic
 
Author
Message

UndegraundMen ®

Longevity: 7 years 7 months

Posts: 25145

Торрент-статистика

Post 22-Feb-2013 04:04

[Quote]

- Выжить вместе / Dual Survival [Eng]- Язык: Английский
Русское название: Выжить вместе
Оригинальное название: Dual Survival
Режиссер / Телекомпания: Brian V. O'Toole / Discovery
Год выпуска: 2013
Жанр: Документальный
Описание:
Новый актер Джо Тети (Joe Teti), проверенный боевой ветеран спец.операций в Ираке и Афганистане, присоединяется к Коди Ландину (Cody Lundin), босому натуралисту, чтобы продемонстрировать свои знания по выживанию. Можно ли использовать консервную банку, чтобы развести огонь или муравьев, чтобы залечить рану? Каждый предлагает уникальные методы, чтобы выжить вместе.
Продолжительность: ~42 минуты
Перевод: Отсутствует
Видеокодек: MPEG-4 AVC/H.264
Битрейт видео: ~1 135 Kbps
Размер кадра: 720х404
Качество видео: HDTVRip
Аудиокодек: AAC, 2ch
Битрейт аудио: ~122kbps

MediaInfo

General
Complete name : F:\Док. фильмы\Выжить вместе [3 сезон] Eng\s03e01 Mars on Earth.mp4
Format : MPEG-4
Format profile : Base Media
Codec ID : isom
File size : 379 MiB
Duration : 42mn 1s
Overall bit rate mode : Variable
Overall bit rate : 1 261 Kbps
Encoded date : UTC 2013-01-02 03:33:43
Tagged date : UTC 2013-01-02 03:33:43
Video
ID : 2
Format : AVC
Format/Info : Advanced Video Codec
Format profile : [url=mailto:[email protected]][email protected][/url]
Format settings, CABAC : Yes
Format settings, ReFrames : 5 frames
Codec ID : avc1
Codec ID/Info : Advanced Video Coding
Duration : 42mn 1s
Bit rate mode : Variable
Bit rate : 1 135 Kbps
Maximum bit rate : 7 418 Kbps
Width : 720 pixels
Height : 404 pixels
Display aspect ratio : 16:9
Frame rate mode : Constant
Frame rate : 29.970 fps
Color space : YUV
Chroma subsampling : 4:2:0
Bit depth : 8 bits
Scan type : Progressive
Bits/(Pixel*Frame) : 0.130
Stream size : 341 MiB (90%)
Writing library : x264 core 129 r2230 1cffe9f
Encoding settings : cabac=1 / ref=5 / deblock=1:0:0 / analyse=0x3:0x113 / me=umh / subme=8 / psy=1 / psy_rd=1.00:0.00 / mixed_ref=1 / me_range=16 / chroma_me=1 / trellis=1 / 8x8dct=1 / cqm=0 / deadzone=21,11 / fast_pskip=1 / chroma_qp_offset=-2 / threads=18 / lookahead_threads=3 / sliced_threads=0 / nr=0 / decimate=1 / interlaced=0 / bluray_compat=0 / constrained_intra=0 / bframes=3 / b_pyramid=2 / b_adapt=2 / b_bias=0 / direct=3 / weightb=1 / open_gop=0 / weightp=2 / keyint=250 / keyint_min=25 / scenecut=40 / intra_refresh=0 / rc_lookahead=50 / rc=crf / mbtree=1 / crf=22.0 / qcomp=0.60 / qpmin=0 / qpmax=69 / qpstep=4 / ip_ratio=1.40 / aq=1:1.00
Encoded date : UTC 2013-01-02 03:16:22
Tagged date : UTC 2013-01-02 03:33:45
Matrix coefficients : BT.709-5, BT.1361, IEC 61966-2-4 709, SMPTE RP177
Audio
ID : 1
Format : AAC
Format/Info : Advanced Audio Codec
Format profile : LC
Codec ID : 40
Duration : 42mn 1s
Bit rate mode : Variable
Bit rate : 122 Kbps
Maximum bit rate : 164 Kbps
Channel(s) : 2 channels
Channel positions : Front: L R
Sampling rate : 48.0 KHz
Compression mode : Lossy
Stream size : 36.6 MiB (10%)
Encoded date : UTC 2013-01-02 03:33:43
Tagged date : UTC 2013-01-02 03:33:45
Скриншоты:

Время раздачи: 24/7 ( до первых скачавших, перебои со связью бывают,зависит от провайдера)
Other forum [Profile] [PM]
Display posts from previous:    
Reply to topic

The time now is: Today 07:14

All times are GMT + 3 Hours



You cannot post new topics in this forum
You cannot reply to topics in this forum
You cannot edit your posts in this forum
You cannot delete your posts in this forum
You cannot vote in polls in this forum
You cannot attach files in this forum
You cannot download files in this forum