Today is a free download without charge Download

Так начинается приключение / Qui comincia l\'avventura (1975) [H.264] DVDRip

Reply to topic
 
Author
Message

UndegraundMen ®

Longevity: 8 years 8 months

Posts: 25145

Торрент-статистика

Post 22-Feb-2013 04:04

[Quote]

-Так начинается приключение / Qui comincia l'avventura (1975) [H.264] DVDRip- Русское название: Так начинается приключение
Оригинальное название: Qui comincia l'avventura
Год выпуска: 1975
Жанр: Комедия
Страна: Италия
Производство: Vides Cinematografica
Описание фильма:
Две красивые женщины — «Сладкая» и Клаудиа — волею судьбы встречаются и попадают в различные смешные и несмешные ситуации. Любящая «приукрасить» и мотоциклы «Сладкая» торопится будто к любимому на свидание. Клаудиа, работница прачечной, поверив ей и устав от мужа, бросает всё и следует за ней…
Итальянская комедия с элементами вестерна и мелодрамы.
Режиссер: Карло Ди Пальма
Сценарий: Барбара Альберти, Амедео Пагани, Карло Ди Пальма
Актеры: Моника Витти, Клаудия Кардинале, Нинетто Даволи, Гуидо Леонтини, Фернандо Камерини, Марио Даниели, Сальваторе Баккаро, Санто Триоло, Альфредо Д’Ипполито
Продолжительность: 01:36:44
Перевод: Одноголосый закадровый (Urasikoko)
Субтитры: Отсутствуют

Дата мировой премьеры: 17 сентября 1975
Видеокодек: MPEG-4 AVC/H.264
Битрейт видео: ~2199 Кбит/сек
Размер кадра: 720x368
Качество видео: DVDRip
Аудиокодек: AC3 2.0
Битрейт аудио: 192 kbps

MediaInfo:

Общее
Уникальный идентификатор : 248193959895473239659685794755664970121 (0xBAB86AFDF9FB2393805BED726F088189)
Полное имя : D:\Downloads\Так начинается приключение.mkv
Формат : Matroska
Версия формата : Version 2
Размер файла : 1,62 Гбайт
Продолжительность : 1 ч. 36 м.
Общий поток : 2392 Кбит/сек
Дата кодирования : UTC 2013-02-18 09:08:52
Программа кодирования : mkvmerge v5.7.0 ('The Whirlwind') built on Jul 29 2012 15:12:35
Библиотека кодирования : libebml v1.2.3 + libmatroska v1.3.0
Видео
Идентификатор : 1
Формат : AVC
Формат/Информация : Advanced Video Codec
Профиль формата : [url=mailto:[email protected]][email protected][/url]
Параметр CABAC формата : Да
Параметр ReFrames формата : 8 кадров
Режим смешивания : Header stripping
Идентификатор кодека : V_MPEG4/ISO/AVC
Продолжительность : 1 ч. 36 м.
Битрейт : 2199 Кбит/сек
Ширина : 720 пикселей
Высота : 368 пикселей
Соотношение сторон : 1,957
Режим частоты кадров : Постоянный
Частота кадров : 25,000 кадров/сек
Цветовое пространство : YUV
Субдискретизация насыщенности : 4:2:0
Битовая глубина : 8 бит
Тип развёртки : Прогрессивная
Бит/(Пиксели*Кадры) : 0.332
Размер потока : 1,45 Гбайт (90%)
Заголовок : Qui comincia l'avventura
Библиотека кодирования : x264 core 129 r2230 1cffe9f
Настройки программы : cabac=1 / ref=8 / deblock=1:0:0 / analyse=0x3:0x133 / me=umh / subme=9 / psy=1 / psy_rd=1.00:0.00 / mixed_ref=1 / me_range=16 / chroma_me=1 / trellis=2 / 8x8dct=1 / cqm=0 / deadzone=21,11 / fast_pskip=1 / chroma_qp_offset=-2 / threads=3 / lookahead_threads=1 / sliced_threads=0 / nr=0 / decimate=1 / interlaced=0 / bluray_compat=0 / constrained_intra=0 / bframes=3 / b_pyramid=2 / b_adapt=2 / b_bias=0 / direct=3 / weightb=1 / open_gop=0 / weightp=2 / keyint=250 / keyint_min=25 / scenecut=40 / intra_refresh=0 / rc_lookahead=60 / rc=2pass / mbtree=1 / bitrate=2199 / ratetol=1.0 / qcomp=0.60 / qpmin=0 / qpmax=69 / qpstep=4 / cplxblur=20.0 / qblur=0.5 / ip_ratio=1.40 / aq=1:1.00
Язык : Italian
Default : Да
Forced : Нет
Аудио
Идентификатор : 2
Формат : AC-3
Формат/Информация : Audio Coding 3
Расширение режима : CM (complete main)
Параметр Endianness формата : Big
Режим смешивания : Header stripping
Идентификатор кодека : A_AC3
Продолжительность : 1 ч. 36 м.
Вид битрейта : Постоянный
Битрейт : 192 Кбит/сек
Каналы : 2 канала
Расположение каналов : Front: L R
Частота : 48,0 КГц
Битовая глубина : 16 бит
Метод сжатия : С потерями
Размер потока : 133 Мбайт (8%)
Заголовок : Одноголосый закадровый (Urasikoko)
Язык : Russian
Default : Да
Forced : Нет
Скриншоты:                    Время раздачи: с 12:00 до 24:00 по Москве (выходные круглосуточно), до 10 скачавших
Other forum [Profile] [PM]
Display posts from previous:    
Reply to topic

The time now is: Today 14:48

All times are GMT + 3 Hours



You cannot post new topics in this forum
You cannot reply to topics in this forum
You cannot edit your posts in this forum
You cannot delete your posts in this forum
You cannot vote in polls in this forum
You cannot attach files in this forum
You cannot download files in this forum