Today is a free download without charge Download

Замуж на 2 дня / Un plan parfait (Паскаль Шомель) [2012 г., Комедия, приключения, BDRip 720p, Дубляж, Лицензия]

Reply to topic
 
Author
Message

akcent7 ®

Gender:

Longevity: 8 years 1 month

Posts: 10

Location: Оренбург

Торрент-статистика

Post 22-Feb-2013 01:16

[Quote]

Замуж на 2 дня / Un plan parfait - Год выпуска: 2012
Страна: США
Жанр: Комедия, приключения
Продолжительность: 01:44:51
Перевод: Дубляж, Лицензия
Режиссер: Паскаль Шомель
Продюссер: иколя Дюваль-Адассовски, Лорен Зэйтун, Ян Зеноу
Сценарий: Лорен Зэйтун, Йохан Кромб, Беатрис Фурнера
Бюджет: €17 000 000
В ролях: Дайан Крюгер, Дани Бун, Алис Поль, Робер Планьоль, Джонатан Коэн, Бернадетт Ле Саше, Этьен Шико, Лорэ Кэлами, Мэлонн Левана, Оливье Клавери, Жан-Ив Шило, Мюриэль Солвэ, Амели Денарие, Эмелин Баяр, Жан-Поль Беццина, Дэмиен Боннар, Нэнси Тейт, Каролин Гонсе, Габриэлль Атже, Лан Хоанг Ксюан, Жан-Шарль Делом, Наталья Колдашова, Олег Мокш
Описание: Изабель мечтает о свадьбе. Но на её семье лежит проклятие. Все первые браки неминуемо заканчиваются разводами. Поэтому, когда ее парень делает ей предложение, Изабель решает перехитрить судьбу. Она отыскивает первого попавшегося лузера, влюбляет его в себя и: вместо того, чтобы развестись, случайно влюбляется сама.
Качество: BDRip 720p
Формат: MKV
Видео кодек: H.26x
Аудио кодек: DTS
Видео: 1280x544 (2.35:1), 24.000 fps, 6 036 Kbps (0.361 bit/pixel)
Аудио: DTS, 48.0 KHz, 6 ch, 755 Kbps, CBR (Russian)

MediaInfo:

Общее
Уникальный идентификатор : 250147967417407926583047076525687979597 (0xBC30BF0041EA4C0585E1E1EDE1603E4D)
Полное имя : Zamuzh.na.2.dnja.2012.D.BDRip.720p.mkv
Формат : Matroska
Версия формата : Version 2
Размер файла : 5,07 Гбайт
Продолжительность : 1 ч. 44 м.
Общий поток : 6928 Кбит/сек
Дата кодирования : UTC 2013-02-06 22:45:41
Программа кодирования : mkvmerge v5.2.0 ('I can't explain') built on Dec 18 2011 18:12:03
Библиотека кодирования : libebml v1.2.3 + libmatroska v1.3.0
Видео
Идентификатор : 1
Формат : AVC
Формат/Информация : Advanced Video Codec
Профиль формата : [url=mailto:[email protected]][email protected][/url]
Параметр CABAC формата : Да
Параметр ReFrames формата : 12 кадров
Идентификатор кодека : V_MPEG4/ISO/AVC
Продолжительность : 1 ч. 44 м.
Битрейт : 6036 Кбит/сек
Ширина : 1280 пикселей
Высота : 544 пикселя
Соотношение сторон : 2,35:1
Частота кадров : 24,000 кадра/сек
Цветовое пространство : YUV
Субдискретизация насыщенности : 4:2:0
Битовая глубина : 8 бит
Тип развёртки : Прогрессивная
Бит/(Пиксели*Кадры) : 0.361
Размер потока : 4,42 Гбайт (87%)
Заголовок : Un plan parfait 2012 720p BluRay DTS x264-IRONCLUB
Библиотека кодирования : x264 core 129 r2245kMod bc13772
Настройки программы : cabac=1 / ref=12 / deblock=1:-3:-3 / analyse=0x3:0x113 / me=umh / subme=11 / psy=1 / fade_compensate=0.00 / psy_rd=1.20:0.00 / mixed_ref=1 / me_range=48 / chroma_me=1 / trellis=2 / 8x8dct=1 / cqm=0 / deadzone=21,11 / fast_pskip=0 / chroma_qp_offset=-2 / threads=12 / lookahead_threads=2 / sliced_threads=0 / nr=0 / decimate=1 / interlaced=0 / bluray_compat=0 / constrained_intra=0 / bframes=7 / b_pyramid=2 / b_adapt=2 / b_bias=0 / direct=3 / weightb=1 / open_gop=0 / weightp=2 / keyint=250 / keyint_min=24 / scenecut=40 / intra_refresh=0 / rc_lookahead=120 / rc=crf / mbtree=0 / crf=17.5000 / qcomp=0.75 / qpmin=0 / qpmax=69 / qpstep=4 / vbv_maxrate=50000 / vbv_bufsize=62500 / crf_max=0.0 / nal_hrd=none / ip_ratio=1.30 / pb_ratio=1.20 / aq=1:0.80
Язык : English
Default : Да
Forced : Да
Аудио
Идентификатор : 2
Формат : DTS
Формат/Информация : Digital Theater Systems
Идентификатор кодека : A_DTS
Продолжительность : 1 ч. 44 м.
Вид битрейта : Постоянный
Битрейт : 755 Кбит/сек
Каналы : 6 каналов
Расположение каналов : Front: L C R, Side: L R, LFE
Частота : 48,0 КГц
Битовая глубина : 24 бит
Метод сжатия : С потерями
Размер потока : 566 Мбайт (11%)
Заголовок : DTS 5.1 @ 768 kbps
Язык : Russian
Default : Да
Forced : Да
Меню
00:00:00.000 : en:00:00:00.000
00:00:24.208 : en:00:00:24.208
00:09:40.666 : en:00:09:40.666
00:22:34.666 : en:00:22:34.666
00:32:16.041 : en:00:32:16.041
00:49:55.583 : en:00:49:55.583
01:02:38.291 : en:01:02:38.291
01:16:53.625 : en:01:16:53.625
01:30:07.208 : en:01:30:07.208
Скриншоты:        
       
Other forum [Profile] [PM]
Display posts from previous:    
Reply to topic

The time now is: Today 20:33

All times are GMT + 3 Hours



You cannot post new topics in this forum
You cannot reply to topics in this forum
You cannot edit your posts in this forum
You cannot delete your posts in this forum
You cannot vote in polls in this forum
You cannot attach files in this forum
You cannot download files in this forum