Today is a free download without charge Download

Смертельный танец / 4 серии из 4 (Игорь Четвериков) [2012, детектив, DVB]

Reply to topic
 
Author
Message

Omen ®

Longevity: 9 years 1 month

Posts: 181086

Торрент-статистика

Post 21-Feb-2013 20:00

[Quote]

Смертельный танец
Год выпуска: 2012
Страна: Белоруссия
Производство: Национальная киностудия "Беларусьфильм"
Жанр: детектив
Продолжительность: 4 ~ 00:50:00
Перевод: Не требуется
Cубтитры: нет
Режиссер: Игорь Четвериков
В ролях: Павел Харланчук, Андрей Фролов, Марина Денисова, Сергей Прокопич, Игорь Денисов, Валерий Зеленский
Описание: В родное Заречье возвращается танцовщица Настя Белецкая, школьная подруга лейтенанта Качуры. Лейтенант с трудом узнает в подавленной и молчаливой девушке темпераментную и сильную Настю, которую он помнил. В это же время в Заречье происходят убийство хозяйки магазина и поджог дома вдовы влиятельного бизнесмена. Настя Белецкая становится одной из фигуранток криминального дела. Она не признает себя виновной и ведет собственное расследование...
Доп. информация: Запись потока *.ts со спутника EUTELSAT, ремукс в *.mpg программой VideoReDo.
На видео местами рекламные баннеры - смотрим 1-й скрин.
Качество видео: DVB
Формат видео: MPEG-PS
Видео кодек: MPEG2
Аудио кодек: MP2
Видео: MPEG Video, 720x576 (4 : 3), 25,000 кадров/сек, 4140 Кбит/сек
Аудио: MPEG Audio, 48,0 КГц, 192 Кбит/сек, 2 канала

MediaInfo

Общее
Полное имя : E:\Torrent\СМЕРТЕЛЬНЫЙ ТАНЕЦ\СМЕРТЕЛЬНЫЙ ТАНЕЦ 1 (ТВЦ).mpg
Формат : MPEG-PS
Размер файла : 1,54 Гбайт
Продолжительность : 50 м.
Режим общего битрейта : Переменный
Общий поток : 4420 Кбит/сек
Видео
Идентификатор : 224 (0xE0)
Формат : MPEG Video
Версия формата : Version 2
Профиль формата : [email protected]
Параметр BVOP формата : Да
Параметр матрицы формата : Выборочная
Параметр GOP формата : M=3, N=24
Продолжительность : 50 м.
Вид битрейта : Переменный
Битрейт : 4140 Кбит/сек
Максимальный битрейт : 15,0 Мбит/сек
Ширина : 720 пикселей
Высота : 576 пикселей
Соотношение сторон : 4:3
Частота кадров : 25,000 кадров/сек
Стандарт вещания : PAL
Цветовое пространство : YUV
Субдискретизация насыщенности : 4:2:0
Битовая глубина : 8 бит
Метод сжатия : С потерями
Бит/(Пиксели*Кадры) : 0.399
Размер потока : 1,45 Гбайт (94%)
Аудио
Идентификатор : 192 (0xC0)
Формат : MPEG Audio
Версия формата : Version 1
Профиль формата : Layer 2
Продолжительность : 50 м.
Вид битрейта : Постоянный
Битрейт : 192 Кбит/сек
Каналы : 2 канала
Частота : 48,0 КГц
Метод сжатия : С потерями
Размер потока : 68,7 Мбайт (4%)

Скриншот c названием фильма

Скриншоты

Other forum [Profile] [PM]
Similar theme
Forum Topic Author Torrent Replies Last Post
./templates/default/images/folder_dl.gif Антология зарубежного кино Жажда смерти [Пенталогия] / Death Wish [Pentalogy] (Майкл Уиннер, Дж. Ли Томпсон, Аллан Голдштейн) [1974–1993, боевик, триллер, DVDRip] MVO, AVO, VO DED
1 | 0

1 | 3141

1

2015-11-13 22:52
DED Latest
Display posts from previous:    
Reply to topic

The time now is: Today 22:25

All times are GMT + 3 Hours



You cannot post new topics in this forum
You cannot reply to topics in this forum
You cannot edit your posts in this forum
You cannot delete your posts in this forum
You cannot vote in polls in this forum
You cannot attach files in this forum
You cannot download files in this forum