Сегодня идет свободное скачивание без начисления Download

Приключения Буратино (Леонид Нечаев) [1975, сказка, музыкальный, SATRip]

Ответить на тему
 
Автор
Сообщение

Koralina ®

Стаж: 7 лет 2 месяца

Сообщений: 1032

Откуда: Lithuania

Торрент-статистика

Пост 21-Фев-2013 14:00

[Цитировать]

Приключения Буратино
Русское название: Приключения Буратино
Год выхода: 1975
Режиссер: Леонид Нечаев
В ролях: Дмитрий Иосифов, Владимир Этуш, Ролан Быков, Елена Санаева, Владимир Басов, Татьяна Проценко, Роман Столкарц, Томас Аугустинас, Григорий Светлорусов, Николай Гринько, .
Страна производства: СССР
Продолжительность: 01:05:01 + 01:07:55
Сценарий: Инна Веткина, Алексей Толстой
Жанр: детский, мюзикл, комедия, семейный
Описание: На дурака не нужен нож: ему немного подпоешь и делай с ним, что хошь! Деревянный человечек, которого Папа Карло выстругал из полена, получился веселым, дерзким, шумным и доверчивым. Лиса Алиса и Кот Базилио завели его в Страну Дураков, но мудрая Черепаха Тортила помогла Буратино найти Золотой Ключик, потому что он был ужасно обаятельным.
Доп.информация:
*Роль черепахи Тортилы Нечаев предлагал поначалу Фаине Раневской, но та, узнав, что фильм сниматься будет в Белоруссии, заявила, что по причине своего уже немолодого возраста согласна сниматься, только если съёмки будут проходить в подъезде её дома.
*В песне черепахи Тортилы Рина Зелёная во время записи отказалась петь второй куплет, так как в нём были слова о преклонном возрасте: «Старость все-таки не радость, люди правду говорят. Как мне счастье улыбалось триста лет тому назад!». Песню переписывать не стали, вместо второго куплета звучит лишь проигрыш.
*Часть фильма снималась в Ялте, на перевале Байдарские ворота и других живописных уголках Крыма
Премьера (мир): 1 января 1976
Релиз на DVD: 26 ноября 2009, «Флагман-Трейд», ...
Релиз на Blu-Ray: 25 декабря 2012, «Флагман-Трейд», ...
Рейтинг IMDB:
Рейтинг Kinopoisk:

Релиз группа:
Формат: AVI
Качество видео: SATRip
Видеокодек: Xvid
Аудиокодек: MPEG Layer 3, 2 ch
Видео: 704x512 (1.38:1), 25 fps, XviD build 65 ~1991 kbps avg, 0.22 bit/pixel
Аудио : 48 kHz, MPEG Layer 3, 2 ch, ~128.00 kbps avg

Медиаинфо

Код:
Format                                   : AVI
Format/Info                              : Audio Video Interleave
File size                                : 990 MiB
Duration                                 : 1h 5mn
Overall bit rate                         : 2 130 Kbps
Director                                 : CrimeanFox
Writing application                      : VirtualDubMod 1.5.10.3 | www.virtualdub-fr.org || (build 2550/release)
Writing library                          : VirtualDub build 32706/release
Copyright                                : Vanila.films
Video
ID                                       : 0
Format                                   : MPEG-4 Visual
Format profile                           : Advanced [email protected]
Format settings, BVOP                    : 2
Format settings, QPel                    : No
Format settings, GMC                     : No warppoints
Format settings, Matrix                  : Default (MPEG)
Codec ID                                 : XVID
Codec ID/Hint                            : XviD
Duration                                 : 1h 5mn
Bit rate                                 : 1 992 Kbps
Width                                    : 704 pixels
Height                                   : 512 pixels
Display aspect ratio                     : 1.375
Frame rate                               : 25.000 fps
Color space                              : YUV
Chroma subsampling                       : 4:2:0
Bit depth                                : 8 bits
Scan type                                : Progressive
Compression mode                         : Lossy
Bits/(Pixel*Frame)                       : 0.221
Stream size                              : 926 MiB (94%)
Writing library                          : XviD 65
Audio
ID                                       : 1
Format                                   : MPEG Audio
Format version                           : Version 1
Format profile                           : Layer 3
Codec ID                                 : 55
Codec ID/Hint                            : MP3
Duration                                 : 1h 5mn
Bit rate mode                            : Constant
Bit rate                                 : 128 Kbps
Channel(s)                               : 2 channels
Sampling rate                            : 48.0 KHz
Compression mode                         : Lossy
Stream size                              : 59.5 MiB (6%)
Alignment                                : Aligned on interleaves
Interleave, duration                     : 40 ms (1.00 video frame)
Interleave, preload duration             : 504 ms
Writing library                          : LAME3.99r
Encoding settings                        : -m s -V 4 -q 2 -lowpass 17 -b 128

Скриншоты

                   

_________________
Вне форума [Профиль] [ЛС]
Похожие темы
Форум Тема Автор Торрент Отв. Посл. сообщение
./templates/default/images/folder_dl.gif Фильмы до 2000 года 72 градуса ниже нуля (Сергей Данилин, Евгений Татарский)[1976.,драма, приключения] SATRip sashau
1 | 0

0 | 980

2

2014-01-22 14:29
sashau Последнее
./templates/default/images/folder_dl.gif Фильмы до 2000 года Не бойся, я с тобой! (Юлий Гусман) [1981, Комедия, Приключения, DVDRip] [H.264] Omen
1 | 0

0 | 1481

18

2014-09-24 12:59
Omen Последнее
./templates/default/images/folder_dl.gif Зарубежное кино Медведь / The Bear / L\'ours (Жан-Жак Анно / Jean-Jacques Annaud) [1988, Франция, США, драма, приключения, семейный, BDRip 720p] [REMASTERED] VO (Екатеринбург Арт) + Original Fre + Sub (Rus, Ukr, Fre) Omen
1 | 0

1 | 1503

10

2015-06-27 17:22
Dracula Последнее
./templates/default/images/folder_dl.gif Иностранные мультфильмы Дом / Home (Тим Джонсон / Tim Johnson) [2015, фантастика, фэнтези, приключения, BDRip-AVC] Dub (Blu-ray EUR) + Dub (Ukr Blu-ray EUR) + Rus, Ukr, Eng Sub + Original Eng Omen
1 | 0

0 | 176

2

2015-07-06 00:00
Omen Последнее
./templates/default/images/folder_dl.gif Обучающее видео Учебный центр 1C | Использование прикладного решения 1С Розница 8.2 Редакция 2 (2015) PCRec Varius
1 | 0

0 | 1391

41

2015-07-16 05:16
Varius Последнее
./templates/default/images/folder_dl.gif Новинки (HD|DVD|BD|WEB|TV|SAT|PDTV|-Rip) Доктор Стрэндж / Doctor Strange (Скотт Дерриксон / Scott Derrickson) [2016 г., фантастика, фэнтези, боевик, приключения, BDRip] Dub (Лицензия) + Original (Eng) Omen
1 | 0

0 | 1400

14

2016-03-09 12:55
Omen Последнее
./templates/default/images/folder_dl.gif Фантастика, фэнтези, ужасы, мистика Владимир Стрельников | Приключения Василия Ромашкина, бортстрелка и некроманта (2016) [FB2] moralis
1 | 0

0 | 1625

15

2016-04-24 21:58
moralis Последнее
./templates/default/images/folder_dl.gif Зарубежное кино Пит и его дракон / Pete\'s Dragon (Дэвид Лоури / David Lowery) [2016, США, фэнтези, приключения, семейный, BDRip 1080p] Dub + Sub Rus, Eng + Original Eng Omen
1 | 0

0 | 1145

10

2016-11-21 01:00
Omen Последнее
./templates/default/images/folder_dl.gif Зарубежное кино Изгой-один: Звёздные войны. Истории / Rogue One: A Star Wars Story (Гарет Эдвардс) [2016 г., фантастика, боевик, приключения, BDRip 720p] DUB | iTunes Theseus
1 | 0

0 | 11145

7

2017-03-23 23:12
Theseus Последнее
./templates/default/images/folder_dl.gif Аниме основной подраздел Наруто + Наруто: Ураганные хроники. Без филлеров! Без повторов! / Naruto + Naruto Shippuuden (Датэ Хаято, Юки Эри) [2002 г., приключения, комедия, боевые искусства, сёнэн, HDTVRip] ALexLeo117
1 | 0

0 | 4818

0

2017-04-24 12:12
ALexLeo117 Последнее
Показать сообщения:    
Ответить на тему

Текущее время: Сегодня 16:06

Часовой пояс: GMT + 3



Вы не можете начинать темы
Вы не можете отвечать на сообщения
Вы не можете редактировать свои сообщения
Вы не можете удалять свои сообщения
Вы не можете голосовать в опросах
Вы не можете прикреплять файлы к сообщениям
Вы не можете скачивать файлы