Сегодня идет свободное скачивание без начисления Download

Приключения Буратино (Леонид Нечаев) [1975, сказка, музыкальный, SATRip]

Ответить на тему
 
Автор
Сообщение

Koralina ®

Стаж: 7 лет 1 месяц

Сообщений: 1032

Откуда: Lithuania

Торрент-статистика

Пост 21-Фев-2013 14:00

[Цитировать]

Приключения Буратино
Русское название: Приключения Буратино
Год выхода: 1975
Режиссер: Леонид Нечаев
В ролях: Дмитрий Иосифов, Владимир Этуш, Ролан Быков, Елена Санаева, Владимир Басов, Татьяна Проценко, Роман Столкарц, Томас Аугустинас, Григорий Светлорусов, Николай Гринько, .
Страна производства: СССР
Продолжительность: 01:05:01 + 01:07:55
Сценарий: Инна Веткина, Алексей Толстой
Жанр: детский, мюзикл, комедия, семейный
Описание: На дурака не нужен нож: ему немного подпоешь и делай с ним, что хошь! Деревянный человечек, которого Папа Карло выстругал из полена, получился веселым, дерзким, шумным и доверчивым. Лиса Алиса и Кот Базилио завели его в Страну Дураков, но мудрая Черепаха Тортила помогла Буратино найти Золотой Ключик, потому что он был ужасно обаятельным.
Доп.информация:
*Роль черепахи Тортилы Нечаев предлагал поначалу Фаине Раневской, но та, узнав, что фильм сниматься будет в Белоруссии, заявила, что по причине своего уже немолодого возраста согласна сниматься, только если съёмки будут проходить в подъезде её дома.
*В песне черепахи Тортилы Рина Зелёная во время записи отказалась петь второй куплет, так как в нём были слова о преклонном возрасте: «Старость все-таки не радость, люди правду говорят. Как мне счастье улыбалось триста лет тому назад!». Песню переписывать не стали, вместо второго куплета звучит лишь проигрыш.
*Часть фильма снималась в Ялте, на перевале Байдарские ворота и других живописных уголках Крыма
Премьера (мир): 1 января 1976
Релиз на DVD: 26 ноября 2009, «Флагман-Трейд», ...
Релиз на Blu-Ray: 25 декабря 2012, «Флагман-Трейд», ...
Рейтинг IMDB:
Рейтинг Kinopoisk:

Релиз группа:
Формат: AVI
Качество видео: SATRip
Видеокодек: Xvid
Аудиокодек: MPEG Layer 3, 2 ch
Видео: 704x512 (1.38:1), 25 fps, XviD build 65 ~1991 kbps avg, 0.22 bit/pixel
Аудио : 48 kHz, MPEG Layer 3, 2 ch, ~128.00 kbps avg

Медиаинфо

Код:
Format                                   : AVI
Format/Info                              : Audio Video Interleave
File size                                : 990 MiB
Duration                                 : 1h 5mn
Overall bit rate                         : 2 130 Kbps
Director                                 : CrimeanFox
Writing application                      : VirtualDubMod 1.5.10.3 | www.virtualdub-fr.org || (build 2550/release)
Writing library                          : VirtualDub build 32706/release
Copyright                                : Vanila.films
Video
ID                                       : 0
Format                                   : MPEG-4 Visual
Format profile                           : Advanced [email protected]
Format settings, BVOP                    : 2
Format settings, QPel                    : No
Format settings, GMC                     : No warppoints
Format settings, Matrix                  : Default (MPEG)
Codec ID                                 : XVID
Codec ID/Hint                            : XviD
Duration                                 : 1h 5mn
Bit rate                                 : 1 992 Kbps
Width                                    : 704 pixels
Height                                   : 512 pixels
Display aspect ratio                     : 1.375
Frame rate                               : 25.000 fps
Color space                              : YUV
Chroma subsampling                       : 4:2:0
Bit depth                                : 8 bits
Scan type                                : Progressive
Compression mode                         : Lossy
Bits/(Pixel*Frame)                       : 0.221
Stream size                              : 926 MiB (94%)
Writing library                          : XviD 65
Audio
ID                                       : 1
Format                                   : MPEG Audio
Format version                           : Version 1
Format profile                           : Layer 3
Codec ID                                 : 55
Codec ID/Hint                            : MP3
Duration                                 : 1h 5mn
Bit rate mode                            : Constant
Bit rate                                 : 128 Kbps
Channel(s)                               : 2 channels
Sampling rate                            : 48.0 KHz
Compression mode                         : Lossy
Stream size                              : 59.5 MiB (6%)
Alignment                                : Aligned on interleaves
Interleave, duration                     : 40 ms (1.00 video frame)
Interleave, preload duration             : 504 ms
Writing library                          : LAME3.99r
Encoding settings                        : -m s -V 4 -q 2 -lowpass 17 -b 128

Скриншоты

                   

_________________
Вне форума [Профиль] [ЛС]
Похожие темы
Форум Тема Автор Торрент Отв. Посл. сообщение
./templates/default/images/folder_dl.gif Иностранные мультфильмы Снежная королева 2: Перезаморозка / Снежная королева 2: Перезаморозка (Алексей Цицилин) [2014 г., мультфильм, фэнтези, комедия, приключения, семейный,WEB-DLRip ] (Оригинальное) Clavik
1 | 0

2 | 1718

60

2016-01-02 08:43
Dracula Последнее
./templates/default/images/folder_dl.gif T Фильмы 2011-2016 Последние рыцари / Last Knights (Казуаки Кирия / Kazuaki Kiriya) [2015 г., боевик, приключения, WEB-DLRip] Dub (Чистый звук) + Original (Eng) Clavik
0 | 1

1 | 2491

85

2016-01-02 08:28
Dracula Последнее
./templates/default/images/folder_dl.gif Обучающее видео Учебный центр 1C | Использование прикладного решения 1С Розница 8.2 Редакция 2 (2015) PCRec Varius
1 | 0

0 | 1251

40

2015-07-16 05:16
Varius Последнее
./templates/default/images/folder_dl.gif Фильмы в формате 3D Хоббит: Битва пяти воинств в 3Д / The Hobbit: The Battle of the Five Armies 3D [Расширенная версия / Extended Cut] (Питер Джексон / Peter Jackson) [2014, Фэнтези, Приключения, BDremux, 1080p] BD3D [Re-Encode] Omen
1 | 0

1 | 877

1

2015-12-28 02:31
Вячеслав379 Последнее
./templates/default/images/folder_dl.gif Новинки (HD|DVD|BD|WEB|TV|SAT|PDTV|-Rip) Доктор Стрэндж / Doctor Strange (Скотт Дерриксон / Scott Derrickson) [2016 г., фантастика, фэнтези, боевик, приключения, BDRip] Dub (Лицензия) + Original (Eng) Omen
1 | 0

0 | 1291

13

2016-03-09 12:55
Omen Последнее
./templates/default/images/folder_dl.gif Фильмы 2011-2016 Великолепная семерка / The Magnificent Seven (Антуан Фукуа / Antoine Fuqua) [2016 г., боевик, приключения, вестерн, BDRip] Dub Omen
1 | 0

0 | 1106

7

2016-03-09 15:51
Omen Последнее
./templates/default/images/folder_dl.gif Иностранные мультфильмы Кунг-фу Панда 3 / Kung Fu Panda 3 (Алессандро Карлони, Дженнифер Ю / Alessandro Carloni, Jennifer Yuh) [2016, Китай, США, Мультфильм, боевик, комедия, приключения, семейный, WEBRip 720p] Dub (Line) Omen
1 | 0

0 | 602

4

2016-03-21 21:00
Omen Последнее
./templates/default/images/folder_dl.gif Фильмы 2011-2016 Выживший / The Revenant (Алехандро Гонсалес Иньярриту) [2015/16, триллер, драма, приключения, BDRip] [Лицензия] DUB O.S.A.
1 | 0

0 | 6261

44

2016-04-19 10:55
O.S.A. Последнее
./templates/default/images/folder_dl.gif Новинки (CamRip|TS) Первый мститель: Противостояние / Captain America: Civil War (Энтони Руссо, Джо Руссо) [2016, фантастика, боевик, приключения, HDTC 720p] [MVO] (FocusStudio) Region_13
1 | 0

0 | 3231

40

2016-06-04 18:54
Region_13 Последнее
./templates/default/images/folder_dl.gif Новинки (HD|DVD|BD|WEB|TV|SAT|PDTV|-Rip) Алиса в Зазеркалье / Alice Through the Looking Glass (Джеймс Бобин) [2016, Фэнтези, Приключения, Семейный, WEB-DLRip] [Line] Russian Mafia
1 | 0

0 | 1463

18

2016-09-17 18:27
Russian Mafia Последнее
Показать сообщения:    
Ответить на тему

Текущее время: Сегодня 14:25

Часовой пояс: GMT + 3



Вы не можете начинать темы
Вы не можете отвечать на сообщения
Вы не можете редактировать свои сообщения
Вы не можете удалять свои сообщения
Вы не можете голосовать в опросах
Вы не можете прикреплять файлы к сообщениям
Вы не можете скачивать файлы