Сегодня идет свободное скачивание без начисления Download

Приключения Буратино (Леонид Нечаев) [1975, сказка, музыкальный, SATRip]

Ответить на тему
 
Автор
Сообщение

Koralina ®

Стаж: 7 лет 4 месяца

Сообщений: 1031

Откуда: Lithuania

Торрент-статистика

Пост 21-Фев-2013 14:00

[Цитировать]

Приключения Буратино
Русское название: Приключения Буратино
Год выхода: 1975
Режиссер: Леонид Нечаев
В ролях: Дмитрий Иосифов, Владимир Этуш, Ролан Быков, Елена Санаева, Владимир Басов, Татьяна Проценко, Роман Столкарц, Томас Аугустинас, Григорий Светлорусов, Николай Гринько, .
Страна производства: СССР
Продолжительность: 01:05:01 + 01:07:55
Сценарий: Инна Веткина, Алексей Толстой
Жанр: детский, мюзикл, комедия, семейный
Описание: На дурака не нужен нож: ему немного подпоешь и делай с ним, что хошь! Деревянный человечек, которого Папа Карло выстругал из полена, получился веселым, дерзким, шумным и доверчивым. Лиса Алиса и Кот Базилио завели его в Страну Дураков, но мудрая Черепаха Тортила помогла Буратино найти Золотой Ключик, потому что он был ужасно обаятельным.
Доп.информация:
*Роль черепахи Тортилы Нечаев предлагал поначалу Фаине Раневской, но та, узнав, что фильм сниматься будет в Белоруссии, заявила, что по причине своего уже немолодого возраста согласна сниматься, только если съёмки будут проходить в подъезде её дома.
*В песне черепахи Тортилы Рина Зелёная во время записи отказалась петь второй куплет, так как в нём были слова о преклонном возрасте: «Старость все-таки не радость, люди правду говорят. Как мне счастье улыбалось триста лет тому назад!». Песню переписывать не стали, вместо второго куплета звучит лишь проигрыш.
*Часть фильма снималась в Ялте, на перевале Байдарские ворота и других живописных уголках Крыма
Премьера (мир): 1 января 1976
Релиз на DVD: 26 ноября 2009, «Флагман-Трейд», ...
Релиз на Blu-Ray: 25 декабря 2012, «Флагман-Трейд», ...
Рейтинг IMDB:
Рейтинг Kinopoisk:

Релиз группа:
Формат: AVI
Качество видео: SATRip
Видеокодек: Xvid
Аудиокодек: MPEG Layer 3, 2 ch
Видео: 704x512 (1.38:1), 25 fps, XviD build 65 ~1991 kbps avg, 0.22 bit/pixel
Аудио : 48 kHz, MPEG Layer 3, 2 ch, ~128.00 kbps avg

Медиаинфо

Код:
Format                                   : AVI
Format/Info                              : Audio Video Interleave
File size                                : 990 MiB
Duration                                 : 1h 5mn
Overall bit rate                         : 2 130 Kbps
Director                                 : CrimeanFox
Writing application                      : VirtualDubMod 1.5.10.3 | www.virtualdub-fr.org || (build 2550/release)
Writing library                          : VirtualDub build 32706/release
Copyright                                : Vanila.films
Video
ID                                       : 0
Format                                   : MPEG-4 Visual
Format profile                           : Advanced [email protected]
Format settings, BVOP                    : 2
Format settings, QPel                    : No
Format settings, GMC                     : No warppoints
Format settings, Matrix                  : Default (MPEG)
Codec ID                                 : XVID
Codec ID/Hint                            : XviD
Duration                                 : 1h 5mn
Bit rate                                 : 1 992 Kbps
Width                                    : 704 pixels
Height                                   : 512 pixels
Display aspect ratio                     : 1.375
Frame rate                               : 25.000 fps
Color space                              : YUV
Chroma subsampling                       : 4:2:0
Bit depth                                : 8 bits
Scan type                                : Progressive
Compression mode                         : Lossy
Bits/(Pixel*Frame)                       : 0.221
Stream size                              : 926 MiB (94%)
Writing library                          : XviD 65
Audio
ID                                       : 1
Format                                   : MPEG Audio
Format version                           : Version 1
Format profile                           : Layer 3
Codec ID                                 : 55
Codec ID/Hint                            : MP3
Duration                                 : 1h 5mn
Bit rate mode                            : Constant
Bit rate                                 : 128 Kbps
Channel(s)                               : 2 channels
Sampling rate                            : 48.0 KHz
Compression mode                         : Lossy
Stream size                              : 59.5 MiB (6%)
Alignment                                : Aligned on interleaves
Interleave, duration                     : 40 ms (1.00 video frame)
Interleave, preload duration             : 504 ms
Writing library                          : LAME3.99r
Encoding settings                        : -m s -V 4 -q 2 -lowpass 17 -b 128

Скриншоты

                   

_________________
Вне форума [Профиль] [ЛС]
Похожие темы
Форум Тема Автор Торрент Отв. Посл. сообщение
./templates/default/images/folder_dl.gif Зарубежное кино Темный рыцарь / The Dark Knight (Кристофер Нолан / Christopher Nolan) [2008, США, боевик, приключения, драма, криминал, BDRip 1080p] Dub + MVO + 3x AVO + 2x VO + Original eng + Sub rus, eng Omen
1 | 0

0 | 387

3

2014-02-04 14:00
Omen Последнее
./templates/default/images/folder_dl.gif Обучающее видео Учебный центр 1C | Использование прикладного решения 1С Розница 8.2 Редакция 2 (2015) PCRec Varius
1 | 0

0 | 1500

42

2015-07-16 05:16
Varius Последнее
./templates/default/images/folder_dl.gif Зарубежное кино Интерстеллар / Interstellar (Кристофер Нолан / Christopher Nolan) [2014, США, Великобритания, фантастика, боевик, детектив, приключения, BDRip 1080p] Dub + MVO (Омикрон) + AVO (Сербин) + AVO (Живов) + Sub Rus, Eng + Original Eng Omen
1 | 0

0 | 464

2

2015-11-27 12:56
Omen Последнее
./templates/default/images/folder_dl.gif Новинки (HD|DVD|BD|WEB|TV|SAT|PDTV|-Rip) Звёздные войны: Последние джедаи / Star Wars: The Last Jedi (Райан Джонсон) [2017, фантастика, фэнтези, боевик, приключения, HDRip-AVC] DUB | iTunes Theseus
1 | 0

0 | 523

4

2018-03-13 13:46
Theseus Последнее
./templates/default/images/folder_dl.gif Новинки (BD|HDTV|DVD) Звёздные войны: Последние джедаи / Star Wars: The Last Jedi (Райан Джонсон) [2017, фантастика, фэнтези, боевик, приключения, UHD BDRemux 2160p] DUB | iTunes Theseus
1 | 0

0 | 947

6

2018-03-15 14:03
Theseus Последнее
./templates/default/images/folder_dl.gif Новинки (BD|HDTV|DVD) Тихоокеанский рубеж 2 / Pacific Rim Uprising (Стивен С. ДеНайт) [2018, фантастика, боевик, приключения, WEBRip 1080p] MVO | HDrezka Studio Theseus
1 | 0

0 | 783

14

2018-05-06 16:30
Theseus Последнее
./templates/default/images/folder_dl.gif Новинки (BD|HDTV|DVD) Чёрная Пантера / Black Panther (Райан Куглер) [2018 г.,Фантастика, Боевик, Приключения , BDRip 1080p HEVC] DUB / MVO Theseus
1 | 0

1 | 857

20

2018-05-11 21:11
Theseus Последнее
./templates/default/images/folder_dl.gif Новинки (BD|HDTV|DVD) Такси 5 / Taxi 5 (Франк Гастамбид) [2018 г., боевик, комедия, криминал, приключения, BDRip 1080p] DUB | iTunes Theseus
1 | 0

0 | 401

10

2018-08-07 13:32
Theseus Последнее
./templates/default/images/folder_dl.gif Новинки (BD|HDTV|DVD) Дэдпул 2 / Deadpool 2 (Дэвид Литч) [2018 г., фантастика, боевик, комедия, приключения, WEB-DL 1080p] [AMAZON] | DUB (Звук с TS) Theseus
1 | 0

0 | 498

4

2018-08-08 11:52
Theseus Последнее
./templates/default/images/folder_dl.gif Новинки (BD|HDTV|DVD) Аксель / A-X-L (Оливер Дэйли) [2018 г., фантастика, боевик, приключения, семейный, WEB-DL 1080p] | MUZOBOZ Theseus
1 | 0

0 | 241

6

2018-10-30 14:01
Theseus Последнее
Показать сообщения:    
Ответить на тему

Текущее время: Сегодня 06:51

Часовой пояс: GMT + 3



Вы не можете начинать темы
Вы не можете отвечать на сообщения
Вы не можете редактировать свои сообщения
Вы не можете удалять свои сообщения
Вы не можете голосовать в опросах
Вы не можете прикреплять файлы к сообщениям
Вы не можете скачивать файлы