Today is a free download without charge Download

Враг мой / Enemy Mine (Вольфганг Петерсен / Wolfgang Petersen) [ 1985 , США , фантастика, боевик, драма , BDRip1080p ]

Reply to topic
 
Author
Message

Delia ®

Gender:

Longevity: 11 years

Posts: 1821

Торрент-статистика

Post 21-Feb-2013 11:19

[Quote]

-Враг мойEnemy Mine«Он друг или враг?»-- Год выпуска: 1985
Страна: США
Жанр: фантастика, боевик, драма, приключения
Продолжительность: 01:48:09
Перевод: Профессиональный дублированный (с многоголосыми вставками)
Режиссер: Вольфганг Петерсен / Wolfgang Petersen
В ролях: Деннис Куэйд (Willis Davidge), Луис Госсет мл. (Jeriba 'Jerry' Shigan), Брайон Джеймс (Stubbs), Ричард Маркус (Arnold), Кэролин МакКормик (Morse), Бампер Робинсон (Zammis), Джим Мапп (Old Drac), Лэнс Кервин (Joey Wooster), Скотт Крафт (Jonathan), Лу Майклс (Wilson), Энди Гир (Bates), Генри Столоу (Cates) Описание: В глубинах нашей галактики, на огромном расстоянии от Земли люди ведут кровопролитную войну с расой рептилий. Войну, которой Земля отдает последние силы, войну на полное уничтожение.
В одной из жестоких схваток в окрестностях гористой планеты в системе двойной звезды пилот Виллис Дэвидж сбивает машину чужого, но тут же получает несколько попаданий и выходит из боя.
Единственное место, где можно выжить после падения - та самая планета. Но упав, он обнаруживает, что сбитый им чужой не погиб. Смертельные враги оказываются заперты в одной клетке, и выбор прост - уничтожить друг друга или заключить перемирие и попытаться спастись.
Что окажется сильнее: желание жить или ненависть и боль за погибших?
-
MPAA: - Детям до 13 лет просмотр не желателен--
Качество: BDRip
Контейнер: MKV
Видео: AVC, 1920x800 (2.40:1), 8877 kbps, 23,976 fps, 0,241 bpp
Аудио №1: русский /; AC3 /; 5.1 /; 48 kHz /; 384 kbps /; 16 bit; |дублированный (с многоголосыми вставками)|
Аудио №2: русский /; AC3 /; 5.1 /; 48 kHz /; 448 kbps /; 16 bit; |закадровый (многоголосый|
Аудио №3: русский /; AC3 /; 4 /; 48 kHz /; 384 kbps /; 16 bit; |(авторский одноголосый, Живов)|
Аудио №4: английский /; AC3 /; 3 /; 48 kHz /; 384 kbps /; 16 bit
Субтитры №1: русские
Субтитры №2: английские
Навигация по главам: есть--

Media Info

General
Unique ID : 228900193185713048043856449959793723204 (0xAC3492D9A0C07D87BC5C82D592330744)
Complete name : E:\Enemy Mine (1985) BDRip1080p .F-HD.mkv
Format : Matroska
Format version : Version 4 / Version 2
File size : 7.91 GiB
Duration : 1h 48mn
Overall bit rate : 10.5 Mbps
Encoded date : UTC 2013-02-21 06:05:33
Writing application : mkvmerge v6.0.0 ('Coming Up For Air') built on Jan 20 2013 09:52:00
Writing library : libebml v1.3.0 + libmatroska v1.4.0
Video
ID : 1
Format : AVC
Format/Info : Advanced Video Codec
Format profile : [email protected]
Format settings, CABAC : Yes
Format settings, ReFrames : 5 frames
Codec ID : V_MPEG4/ISO/AVC
Duration : 1h 48mn
Bit rate : 8 877 Kbps
Width : 1 920 pixels
Height : 800 pixels
Display aspect ratio : 2.40:1
Frame rate : 23.976 fps
Color space : YUV
Chroma subsampling : 4:2:0
Bit depth : 8 bits
Scan type : Progressive
Bits/(Pixel*Frame) : 0.241
Stream size : 6.55 GiB (83%)
Writing library : x264 core 129 r2230 1cffe9f
Encoding settings : cabac=1 / ref=5 / deblock=1:-3:-3 / analyse=0x3:0x113 / me=umh / subme=10 / psy=1 / psy_rd=1.10:0.05 / mixed_ref=1 / me_range=48 / chroma_me=1 / trellis=2 / 8x8dct=1 / cqm=0 / deadzone=21,11 / fast_pskip=0 / chroma_qp_offset=-3 / threads=6 / lookahead_threads=1 / sliced_threads=0 / nr=0 / decimate=1 / interlaced=0 / bluray_compat=0 / constrained_intra=0 / bframes=9 / b_pyramid=2 / b_adapt=2 / b_bias=0 / direct=3 / weightb=1 / open_gop=0 / weightp=2 / keyint=240 / keyint_min=23 / scenecut=40 / intra_refresh=0 / rc=2pass / mbtree=0 / bitrate=8877 / ratetol=1.0 / qcomp=0.70 / qpmin=0 / qpmax=69 / qpstep=4 / cplxblur=20.0 / qblur=0.5 / ip_ratio=1.40 / pb_ratio=1.30 / aq=1:0.80
Language : English
Default : Yes
Forced : No
Color primaries : BT.709-5, BT.1361, IEC 61966-2-4, SMPTE RP177
Transfer characteristics : BT.709-5, BT.1361
Matrix coefficients : BT.709-5, BT.1361, IEC 61966-2-4 709, SMPTE RP177
Audio #1
ID : 2
Format : AC-3
Format/Info : Audio Coding 3
Mode extension : CM (complete main)
Codec ID : A_AC3
Duration : 1h 48mn
Bit rate mode : Constant
Bit rate : 384 Kbps
Channel(s) : 6 channels
Channel positions : Front: L C R, Side: L R, LFE
Sampling rate : 48.0 KHz
Bit depth : 16 bits
Compression mode : Lossy
Stream size : 297 MiB (4%)
Title : дублированный (с многоголосыми вставками)
Language : Russian
Default : Yes
Forced : No
Audio #2
ID : 3
Format : AC-3
Format/Info : Audio Coding 3
Mode extension : CM (complete main)
Codec ID : A_AC3
Duration : 1h 48mn
Bit rate mode : Constant
Bit rate : 448 Kbps
Channel(s) : 6 channels
Channel positions : Front: L C R, Side: L R, LFE
Sampling rate : 48.0 KHz
Bit depth : 16 bits
Compression mode : Lossy
Stream size : 347 MiB (4%)
Title : закадровый (многоголосый)
Language : Russian
Default : No
Forced : No
Audio #3
ID : 4
Format : AC-3
Format/Info : Audio Coding 3
Mode extension : CM (complete main)
Codec ID : A_AC3
Duration : 1h 48mn
Bit rate mode : Constant
Bit rate : 384 Kbps
Channel(s) : 4 channels
Channel positions : Front: L C R, Side: C
Sampling rate : 48.0 KHz
Bit depth : 16 bits
Compression mode : Lossy
Stream size : 297 MiB (4%)
Title : (авторский одноголосый, Живов)
Language : Russian
Default : No
Forced : No
Audio #4
ID : 5
Format : AC-3
Format/Info : Audio Coding 3
Mode extension : CM (complete main)
Codec ID : A_AC3
Duration : 1h 48mn
Bit rate mode : Constant
Bit rate : 384 Kbps
Channel(s) : 3 channels
Channel positions : Front: L C R
Sampling rate : 48.0 KHz
Bit depth : 16 bits
Compression mode : Lossy
Stream size : 297 MiB (4%)
Language : English
Default : No
Forced : No
Text #1
ID : 6
Format : UTF-8
Codec ID : S_TEXT/UTF8
Codec ID/Info : UTF-8 Plain Text
Language : Russian
Default : No
Forced : No
Text #2
ID : 7
Format : UTF-8
Codec ID : S_TEXT/UTF8
Codec ID/Info : UTF-8 Plain Text
Language : English
Default : No
Forced : No
Menu
00:00:00.000 : en:00:00:00.000
00:09:55.595 : en:00:09:55.595
00:20:39.946 : en:00:20:39.946
00:34:47.376 : en:00:34:47.376
00:44:31.835 : en:00:44:31.835
00:49:29.299 : en:00:49:29.299
01:02:58.733 : en:01:02:58.733
01:13:18.477 : en:01:13:18.477
01:17:23.597 : en:01:17:23.597
01:24:56.591 : en:01:24:56.591
01:30:52.321 : en:01:30:52.321
01:43:37.878 : en:01:43:37.878

Знаете ли Вы, что...

  • Прямо перед нападением существа на его ногу, Дэвидж поёт песню «Полуночный экспресс».
  • Фильм был очень популярен в бывшем Советском Союзе, так как он был в первой волне американских фильмов, легально разрешённых к показу. «Враг мой» был афиширован как первый американский фильм ужасов и имел огромный успех.
  • «Враг мой» вдохновил на создание песни «Неразлучные враги» (Inseparable Enemies) группы Star One в альбоме Space Metal.
  • Актёры Куэйд и Луис Госсетт-младший ранее несколько лет вместе работали в фильме «Челюсти 3».
  • В начале фильма на пролетающем грузовом судне можно увидеть буквы BTA (Bilateral Terran Alliance - двусторонний земной альянс).
  • Действие фильма проходит с 2092 до 2096 гг. Ближе к концу фильма даты исчезновения и спасения Дэвиджа видны, когда высокопоставленный офицер просматривает его файл.
  • В том же 1985 году Лонгиер, в соавторстве с Дэвидом Герролдом, написал одноименный роман-новелизацию.
  • Озеро, возле которого происходит первая встреча человека и драка, было изготовлено для съемок фильма Петерсена «Лодка» (1981). Также при съемках «Врага моего» использовались декорации, сделанные для другого фильма Петерсена - «Бесконечная история» (1984).
  • У фильма мог быть более длинный финал. По-крайней мере, Петерсен отснял сцену, в которой Замус представляет Дэвиджа своим родственникам на родной планете.
  • На режиссерское место прочили Терри Гиллиама, но тот отказался, предпочтя поработать над собственным проектом - «Бразилией».
  • Во время сражения в начале фильма бортовой компьютер корабля драков показывает на мониторе структуру белка.
  • Первоначально фильм был снят на Вестманнаейаре (мелком островном архипелаге возле южного побережья Исландии). В результате трений между режиссером и продюсерами, проект был закрыт. Через год Петерсен заново отснял весь фильм. Съемки проходили на баварской киностудии (г. Мюнхен. Часть декораций сохранилась до сих пор, их можно увидеть во время экскурсии по киностудии), но некоторые сцены были отсняты на пленэре - на одном из Канарских островов (вулканические ландшафты и зеленое озеро. Эти пейзажи можно увидеть, посетив национальный парк в Ланзароте).
  • Луи Госсет, сыгравший инопланетянина, сам придумал странный «акцент». Он полоскал слюну в горле так, как это делают грудные дети.


Скриншоты

       
     

_________________
Человек – это канат, натянутый между животным и сверхчеловеком, – канат над пропастью.
В человеке ценно то, что он мост, а не цель. Фридрих Ницше
Other forum [Profile] [PM]
Display posts from previous:    
Reply to topic

The time now is: Today 00:55

All times are GMT + 3 Hours



You cannot post new topics in this forum
You cannot reply to topics in this forum
You cannot edit your posts in this forum
You cannot delete your posts in this forum
You cannot vote in polls in this forum
You cannot attach files in this forum
You cannot download files in this forum