Today is a free download without charge Download

Речные убийства / The River Murders (Рич Кауэн / Rich Cowan) [2011, США, триллер, HDTVRip 1080p] VO ([den904]) + Original Eng

Reply to topic
 
Author
Message

Omen ®

Longevity: 8 years 5 months

Posts: 181087

Торрент-статистика

Post 20-Feb-2013 21:48

[Quote]

Речные убийства / The River Murders
Страна: США
Студия: March On Productions, Mudflap Films, North by Northwest Productions
Жанр: триллер
Год выпуска: 2011
Продолжительность: 01:32:14
Перевод: Одноголосый закадровый [den904]
Cубтитры: нет
Оригинальная аудиодорожка: английский
Режиссер: Рич Кауэн / Rich Cowan
В ролях: Рэй Лиотта (Jack Verdon), Кристиан Слэйтер (Agent Vuckovitch), Винг Реймз (Captain Langley), Жизель Фрага (Ana Verdon), Сара Анн Шультс (Jenny Thames), Майкл Родрик (John Lee), Мелора Уолтерс (Agent Glover), Крис ЛеБланк (Detective Soter), Рэймонд Дж. Бэрри (Trent Verdon), Серена Кэрил (Rebecca), Trent A. Chastain (Jack's newborn son), C.R. Clatworthy (Thomas Lincoln)
Описание: Детектив Джек Вердон становится главным подозреваемым в серии убийств, когда ФБР обнаруживает, что все жертвы были как-то с ним связаны.
Доп. информация: ИМХО, вполне добротный, качественно снятый триллер с хорошими актёрами. Интересный сюжет. Можно (и хочется!) смотреть больше одного раза.
Наконец нашёл в 1080p-качестве без квадратов/артефактов. Русскую аудиодорожку прикрутил от http:///*spam*//forum/viewtopic.php?t=4201717
Синхронизировал "на глазок", точнее "на ушко", но, кажется, что получилось удачно. Желающие могут оценить результат, скачав сэмпл под спойлером ниже.
Тип релиза: BDRip 1080p
Контейнер: MKV
Видео: x264 10,4Mbps/1920x1080/23,976fps/16:9/High Profile L4.1
Аудио: English: DTS 5.1 48 kHz 1510 kbps 24-bit - original
Аудио 2: Russian: 48 kHz, AC3 Dolby Digital, 3/2 (L,C,R,l,r) + LFE ch, ~384 kbps |VO, den904|

MediaInfo

General
Unique ID : 246483523883710082288139564840519830378 (0xB96EFFFC5E1421FF856960E8C4118B6A)
Complete name : D:\my torrents\The River Murders\River Murders, the - 1080p - 2011 (1).mkv
Format : Matroska
Format version : Version 2
File size : 8.17 GiB
Duration : 1h 33mn
Overall bit rate : 12.6 Mbps
Encoded date : UTC 2013-02-20 17:06:06
Writing application : mkvmerge v5.2.0 ('I can't explain') built on Dec 18 2011 18:12:03
Writing library : libebml v1.2.3 + libmatroska v1.3.0
Video
ID : 1
Format : AVC
Format/Info : Advanced Video Codec
Format profile : [email protected]
Format settings, CABAC : Yes
Format settings, ReFrames : 4 frames
Codec ID : V_MPEG4/ISO/AVC
Duration : 1h 33mn
Bit rate : 10.4 Mbps
Width : 1 920 pixels
Height : 1 080 pixels
Display aspect ratio : 16:9
Frame rate mode : Constant
Frame rate : 23.976 fps
Color space : YUV
Chroma subsampling : 4:2:0
Bit depth : 8 bits
Scan type : Progressive
Bits/(Pixel*Frame) : 0.210
Stream size : 6.78 GiB (83%)
Language : English
Default : Yes
Forced : No
Audio #1
ID : 2
Format : DTS
Format/Info : Digital Theater Systems
Mode : 16
Format settings, Endianness : Big
Codec ID : A_DTS
Duration : 1h 33mn
Bit rate mode : Constant
Bit rate : 1 509 Kbps
Channel(s) : 6 channels
Channel positions : Front: L C R, Side: L R, LFE
Sampling rate : 48.0 KHz
Bit depth : 24 bits
Compression mode : Lossy
Delay relative to video : 28ms
Stream size : 1 005 MiB (12%)
Language : English
Default : No
Forced : No
Audio #2
ID : 3
Format : AC-3
Format/Info : Audio Coding 3
Mode extension : CM (complete main)
Format settings, Endianness : Big
Codec ID : A_AC3
Duration : 1h 33mn
Bit rate mode : Constant
Bit rate : 384 Kbps
Channel(s) : 6 channels
Channel positions : Front: L C R, Side: L R, LFE
Sampling rate : 48.0 KHz
Bit depth : 16 bits
Compression mode : Lossy
Delay relative to video : 30ms
Stream size : 256 MiB (3%)
Language : Russian
Default : Yes
Forced : No

Скриншоты



Рейтинги кинопорталов

Очень расстраивает, что добротные триллеры, с хорошими актёрами и сюжетом, такие как этот, или, напрмер, "Дженнифер 8", получают на кинопоисках низкие рейтинги! Зато всевозможные шматрицы, снятые далёкими от кинематографа рекламщиками, и аватары, похожие на запись прохождения 3д-шутера, оценены как шедевры!
Other forum [Profile] [PM]
Display posts from previous:    
Reply to topic

The time now is: Today 22:58

All times are GMT + 3 Hours



You cannot post new topics in this forum
You cannot reply to topics in this forum
You cannot edit your posts in this forum
You cannot delete your posts in this forum
You cannot vote in polls in this forum
You cannot attach files in this forum
You cannot download files in this forum