Today is a free download without charge Download

Высшее общество / High Society (Чарльз Уолтерс / Charles Walters) [1956, США, романтическая комедия, музыка, HDTVRip 720p] MVO + Sub Eng + Original Eng

Reply to topic
 
Author
Message

Omen ®

Longevity: 8 years 5 months

Posts: 181087

Торрент-статистика

Post 20-Feb-2013 21:48

[Quote]

Высшее общество / High Society
Страна: США
Жанр: романтическая комедия, музыка
Год выпуска: 1956
Продолжительность: 01:46:50-Перевод: Профессиональный (многоголосый, закадровый)
Cубтитры: английские
Оригинальная аудиодорожка: английский-Режиссер: Чарльз Уолтерс / Charles Walters-В ролях: Грэйс Келли, Бинг Кросби, Фрэнк Синатра, Селести Холм, Луис Кэлхерн, Луи Армстронг-Описание:
Очаровательная и избалованная светская львица из высшего общества Трэйси Саманта Лорд собирается выйти замуж во второй раз. Она нашла себе, как ей кажется, «идеального» мужчину — служащего своего отца. Но тут появляется ее бывший муж Декстер-Хэвен, известнейший композитор и исполнитель джаза, в котором солирует знаменитый джазовый трубач Луи Армстронг.
К этой джазовой компании присоединяются два газетных репортера Майк Коннор и Лиз Имбри, которые должны освещать эту свадьбу в прессе. В назначенный час начинается подготовка к торжеству, во время которой карьерист-жених предстанет не в самом лучшем свете, а бывший муж, вернет «прозревшую и поумневшую» супругу.-Сэмпл: Скачать-Тип релиза: HDTVRip 720p
Контейнер: MKV-Видео: 1280x720 (16:9); 5450 Kbps; 23.976 fps; 0.247 bpp
Аудио 1: Russian; AC3; 48.0 KHz; 2ch; 192 Kbps
Аудио 2: English; AC3; 48.0 KHz; 2ch; 384 Kbps
Формат субтитров: softsub (SRT)

MediaInfo

Format : Matroska
Format version : Version 2
File size : 4.50 GiB
Duration : 1h 46mn
Overall bit rate mode : Variable
Overall bit rate : 6 026 Kbps
Movie name : High Society (1956)
Encoded date : UTC 2013-02-20 16:43:59
Writing application : mkvmerge v5.0.1 ('Es ist Sommer') built on Oct 9 2011 11:55:43
Writing library : libebml v1.2.2 + libmatroska v1.3.0
Video
ID : 1
Format : AVC
Format/Info : Advanced Video Codec
Format profile : [email protected]
Format settings, CABAC : Yes
Format settings, ReFrames : 6 frames
Codec ID : V_MPEG4/ISO/AVC
Duration : 1h 46mn
Bit rate mode : Variable
Bit rate : 5 450 Kbps
Maximum bit rate : 25.0 Mbps
Width : 1 280 pixels
Height : 720 pixels
Display aspect ratio : 16:9
Frame rate mode : Constant
Frame rate : 23.976 fps
Color space : YUV
Chroma subsampling : 4:2:0
Bit depth : 8 bits
Scan type : Progressive
Bits/(Pixel*Frame) : 0.247
Stream size : 3.98 GiB (88%)
Writing library : x264 core 114 r1924 08d04a4
Encoding settings : cabac=1 / ref=6 / deblock=1:-3:-3 / analyse=0x3:0x133 / me=umh / subme=8 / psy=1 / psy_rd=1.00:0.00 / mixed_ref=1 / me_range=16 / chroma_me=1 / trellis=2 / 8x8dct=1 / cqm=0 / deadzone=21,11 / fast_pskip=1 / chroma_qp_offset=-2 / threads=6 / sliced_threads=0 / nr=0 / decimate=1 / interlaced=0 / constrained_intra=0 / bframes=6 / b_pyramid=0 / b_adapt=1 / b_bias=0 / direct=1 / weightb=1 / open_gop=0 / weightp=2 / keyint=240 / keyint_min=24 / scenecut=40 / intra_refresh=0 / rc_lookahead=40 / rc=2pass / mbtree=1 / bitrate=5450 / ratetol=1.0 / qcomp=0.60 / qpmin=0 / qpmax=69 / qpstep=4 / cplxblur=20.0 / qblur=0.5 / vbv_maxrate=25000 / vbv_bufsize=25000 / nal_hrd=vbr / ip_ratio=1.40 / aq=1:1.00
Default : Yes
Forced : No
Audio #1
ID : 2
Format : AC-3
Format/Info : Audio Coding 3
Mode extension : CM (complete main)
Format settings, Endianness : Big
Codec ID : A_AC3
Duration : 1h 46mn
Bit rate mode : Constant
Bit rate : 192 Kbps
Channel(s) : 2 channels
Channel positions : Front: L R
Sampling rate : 48.0 KHz
Bit depth : 16 bits
Compression mode : Lossy
Stream size : 147 MiB (3%)
Title : MVO
Language : Russian
Default : Yes
Forced : No
Audio #2
ID : 3
Format : AC-3
Format/Info : Audio Coding 3
Mode extension : CM (complete main)
Format settings, Endianness : Big
Codec ID : A_AC3
Duration : 1h 46mn
Bit rate mode : Constant
Bit rate : 384 Kbps
Channel(s) : 2 channels
Channel positions : Front: L R
Sampling rate : 48.0 KHz
Bit depth : 16 bits
Compression mode : Lossy
Stream size : 293 MiB (6%)
Language : English
Default : No
Forced : No
Text
ID : 4
Format : UTF-8
Codec ID : S_TEXT/UTF8
Codec ID/Info : UTF-8 Plain Text
Language : English
Default : No
Forced : No

Скриншоты

Other forum [Profile] [PM]
Display posts from previous:    
Reply to topic

The time now is: Today 23:44

All times are GMT + 3 Hours



You cannot post new topics in this forum
You cannot reply to topics in this forum
You cannot edit your posts in this forum
You cannot delete your posts in this forum
You cannot vote in polls in this forum
You cannot attach files in this forum
You cannot download files in this forum