Today is a free download without charge Download

Киноман / Cineman (Янн Муа / Yann Moix) [2009, Франция, фэнтези, мелодрама, комедия, DVD9] R5 MVO Sub rus + original fre [«Вольга»]

Reply to topic
 
Author
Message

Varius ®

Gender:

Longevity: 9 years 7 months

Posts: 2416

Location: Hell

Торрент-статистика

Post 29-May-2011 04:49

[Quote]

-Киноман / Cineman-«Cet homme est professeur de math�matiques» -Страна: Франция
Студия: Banque Populaire Images 8, Canal+ [fr], Fortis Film Fund, Le Tax Shelter du Gouvernement F�d�ral de Belgique, R�gion Wallone, SAJ, Scope Pictures, TF1 Films Production
Жанр: фэнтези, мелодрама, комедия
Год выпуска: 2009
Мировая премьера: 28 октября 2009
Дата выхода DVD: 26 мая 2011, «Вольга»
Продолжительность: 01:28:43
Перевод: Профессиональный (многоголосый закадровый) [Лицензия]
Cубтитры: русские
Оригинальная аудиодорожка: французский-Режиссер: Янн Муа / Yann Moix-В ролях: Франк Дюбоск, Люси Гордон, Пьер-Франсуа, Мартен-Лаваль, Пьер Ришар, Оливер Маг, Энн Маривин, Жан-Кристоф Буве, Мишель Галабрю, Мариса Беренсон, Оливье Даза-Описание: Невзрачный преподаватель математики неожиданно для себя получил возможность путешествовать по всем кинематографическим жанрам — из фильма в фильм. То он примеряет маску Зорро, то становится ковбоем из диких прерий… В одном из фильмов он встречает женщину своей мечты и делает всё возможное и невозможное, чтобы забрать её с собой, в реальность..-Бонусы: нет- -Качество: DVD9 R5
Формат: DVD-Video
Видео кодек: MPEG2
Аудио кодек: AC3 + DTS
Видео: PAL 16:9 (720x576(0.820)) MPEG Video,25,000 кадр/сек, 8500 Кбит/сек
Аудио #1: Russian (Dolby AC3, 6 ch) 256 Кбит/сек, 48,0 КГц
Аудио #2: Francais (Dolby AC3, 6 ch) 256 Кбит/сек, 48,0 КГц
Аудио #3: Russian (DTS, 6 ch) 768 Кбит/сек, 48,0 КГц--

DVDInfo

Title: Мой диск
Size: 6.31 Gb ( 6 618 326 KBytes ) - DVD-9
Enabled regions: 1, 2, 3, 4, 5, 6, 7, 8
VTS_01 :
Play Length: 00:00:10
Video: PAL 16:9 (720x576) VBR, Auto Pan&Scan, Auto Letterboxed
VTS_02 :
Play Length: 00:00:06
Video: PAL 16:9 (720x576) VBR, Auto Pan&Scan, Auto Letterboxed
VTS_03 :
Play Length: 01:28:43
Video: PAL 16:9 (720x576) VBR, Auto Pan&Scan, Auto Letterboxed
Audio:
Russian (Dolby AC3, 6 ch)
Russian (DTS, 6 ch)
Francais (Dolby AC3, 6 ch)
Subtitles:
Not specified
Not specified
Not specified

MediaInfo

Общее
Полное имя : F:\Новинки 2011\Kinoman.2009.DVD9\VIDEO_TS\VTS_03_1.VOB
Формат : MPEG-PS
Размер файла : 1024 Мбайт
Продолжительность : 14 м.
Общий поток : 9937 Кбит/сек
Видео
Идентификатор : 224 (0xE0)
Формат : MPEG Video
Версия формата : Version 2
Профиль формата : [email protected]
Параметр BVOP формата : Да
Параметр матрицы формата : По умолчанию
Параметры GOP формата : M=3, N=15
Продолжительность : 14 м.
Вид битрейта : Постоянный
Битрейт : 8500 Кбит/сек
Ширина : 720 пикс.
Высота : 576 пикс.
Соотношение сторон : 16:9
Частота кадров : 25,000 кадр/сек
Стандарт вещания : PAL
Цветовое пространство : YUV
Подвыборка цветности : 4:2:0
Битовая глубина : 8 бит
Тип развёртки : Чересстрочная
Порядок развёртки : Верхнее поле первое
Метод сжатия : С потерями
Бит/(Пиксели*Кадры) : 0.820
Размер потока : 873 Мбайт (85%)
Аудио #1
Идентификатор : 189 (0xBD)-128 (0x80)
Формат : AC-3
Формат/Информация : Audio Coding 3
Расширение режима : CM (complete main)
Режим смешивания : DVD-Video
Продолжительность : 14 м.
Вид битрейта : Постоянный
Битрейт : 256 Кбит/сек
Канал(ы) : 6 канала(ов)
Расположение каналов : Front: L C R, Side: L R, LFE
Частота : 48,0 КГц
Битовая глубина : 16 бит
Метод сжатия : С потерями
Размер потока : 26,4 Мбайт (3%)
Аудио #2
Идентификатор : 189 (0xBD)-130 (0x82)
Формат : AC-3
Формат/Информация : Audio Coding 3
Расширение режима : CM (complete main)
Режим смешивания : DVD-Video
Продолжительность : 14 м.
Вид битрейта : Постоянный
Битрейт : 256 Кбит/сек
Канал(ы) : 6 канала(ов)
Расположение каналов : Front: L C R, Side: L R, LFE
Частота : 48,0 КГц
Битовая глубина : 16 бит
Метод сжатия : С потерями
Размер потока : 26,4 Мбайт (3%)
Аудио #3
Идентификатор : 189 (0xBD)-137 (0x89)
Формат : DTS
Формат/Информация : Digital Theater Systems
Режим смешивания : DVD-Video
Продолжительность : 14 м.
Вид битрейта : Постоянный
Битрейт : 755 Кбит/сек
Канал(ы) : 6 канала(ов)
Расположение каналов : Front: L C R, Side: L R, LFE
Частота : 48,0 КГц
Битовая глубина : 16 бит
Метод сжатия : С потерями
Размер потока : 77,7 Мбайт (8%)

Скриншоты меню

     

Скриншоты фильма

               
--

_________________

Создавая "Новую папку", не считайте себя Создателем - это право Вам дано Админом


Other forum [Profile] [PM]
Display posts from previous:    
Reply to topic

The time now is: Today 20:59

All times are GMT + 3 Hours



You cannot post new topics in this forum
You cannot reply to topics in this forum
You cannot edit your posts in this forum
You cannot delete your posts in this forum
You cannot vote in polls in this forum
You cannot attach files in this forum
You cannot download files in this forum