Сегодня идет свободное скачивание без начисления Download

Я так давно тебя люблю / Il y a longtemps que je t'aime (Филипп Клодель) [2007 г., драма, детектив, BDRip720p]

Ответить на тему
 
Автор
Сообщение

Delia ®

Пол:

Стаж: 8 лет 11 месяцев

Сообщений: 1822

Торрент-статистика

Пост 29-Май-2011 00:50

[Цитировать]

Я так давно тебя люблюIl y a longtemps que je t'aime Год выпуска: 2007
Страна: Германия, Франция
Жанр: драма, детектив
Продолжительность: 01:56:50
Перевод: Профессиональный (многоголосый, закадровый)
Режиссер: Филипп Клодель
Продюссер: Ив Мармион, Сильвестр Джуарино
Сценарий: Филипп Клодель
Премьера в мире: 14 февраля 2008
В ролях: Кристин Скотт Томас, Эльза Зильберштейн, Серж Азанавичус, Лоран Гревиль, Фредерик Пьеро, Клер Джонстон, Катрин Осмален, Жан-Клод Арно, Оливье Крувелье, Лисе Сегур
Описание: Джульетт выпускают из тюрьмы после 15 лет заключения. За все это время она ни разу не виделась со своими родственниками — те не хотели иметь с ней никаких дел. Ее младшая сестра Леа приглашает Джульетт пожить к себе. Она живет в Нанси с мужем Люком и двумя приемными дочерьми. Долгое заключение Джульетт и большая разница в возрасте сестер делает их практически чуждыми друг другу женщинами. Но, тем не менее, когда социальный работник связался с Леа по поводу Джульетт, та, ни секунды не раздумывая, согласилась предоставить сестре жилье.
Официальный сайт
Качество: BDRip720p
Формат: MKV
Видео кодек: H.264
Аудио кодек: AC3
Видео: English, 3075 Кбит/сек, 1280*688 (1,860), в 23,976 кадр/сек, AVC ([email protected])
Аудио: Russian, 448 Кбит/сек, 48,0 КГц, 16 бит, 6 канала(ов), AC-3
Аудио:Французский,640 Кбит/сек, 48,0 КГц, 16 бит, 6 канала(ов), AC-3 | отдельно на народ.ру
Субтитры:Russian, English - VobSub

MI:

Общее
Уникальный идентификатор : 215176464950903072979863669403981591869 (0xA1E17ACEC65B180DB2A1118AD31E353D)
Полное имя : D:\торрент\Il y a longtemps que je t'aime ( 2008)BDRip 720p.mkv
Формат : Matroska
Размер файла : 2,93 Гбайт
Продолжительность : 1 ч. 56 м.
Общий поток : 3595 Кбит/сек
Дата кодирования : UTC 2011-05-28 20:59:31
Программа кодирования : mkvmerge v4.8.0 ('I Got The...') built on May 24 2011 03:12:58
Библиотека кодирования : libebml v1.2.0 + libmatroska v1.1.0
Видео
Идентификатор : 1
Формат : AVC
Формат/Информация : Advanced Video Codec
Профиль формата : [email protected]
Параметр CABAC формата : Да
Параметр ReFrames формата : 9 кадры
Идентификатор кодека : V_MPEG4/ISO/AVC
Продолжительность : 1 ч. 56 м.
Битрейт : 3075 Кбит/сек
Ширина : 1280 пикс.
Высота : 688 пикс.
Соотношение сторон : 1,860
Частота кадров : 23,976 кадр/сек
Цветовое пространство : YUV
Подвыборка цветности : 4:2:0
Битовая глубина : 8 бит
Тип развёртки : Прогрессивная
Бит/(Пиксели*Кадры) : 0.146
Размер потока : 2,51 Гбайт (86%)
Библиотека кодирования : x264 core 115 r1995 c1e60b9
Настройки программы : cabac=1 / ref=9 / deblock=1:-3:-2 / analyse=0x3:0x133 / me=umh / subme=9 / psy=1 / psy_rd=1.00:0.15 / mixed_ref=1 / me_range=32 / chroma_me=1 / trellis=2 / 8x8dct=1 / cqm=0 / deadzone=21,11 / fast_pskip=0 / chroma_qp_offset=-3 / threads=6 / sliced_threads=0 / nr=0 / decimate=1 / interlaced=0 / bluray_compat=0 / constrained_intra=0 / bframes=6 / b_pyramid=2 / b_adapt=2 / b_bias=0 / direct=1 / weightb=1 / open_gop=0 / weightp=2 / keyint=250 / keyint_min=24 / scenecut=40 / intra_refresh=0 / rc_lookahead=50 / rc=crf / mbtree=1 / crf=20.0 / qcomp=0.60 / qpmin=0 / qpmax=69 / qpstep=4 / ip_ratio=1.40 / aq=1:1.00
Язык : English
Аудио
Идентификатор : 2
Формат : AC-3
Формат/Информация : Audio Coding 3
Расширение режима : CM (complete main)
Идентификатор кодека : A_AC3
Продолжительность : 1 ч. 56 м.
Вид битрейта : Постоянный
Битрейт : 448 Кбит/сек
Канал(ы) : 6 канала(ов)
Расположение каналов : Front: L C R, Side: L R, LFE
Частота : 48,0 КГц
Битовая глубина : 16 бит
Метод сжатия : С потерями
Размер потока : 374 Мбайт (12%)
Язык : Russian
Текст #1
Идентификатор : 3
Формат : VobSub
Режим смешивания : zlib
Идентификатор кодека : S_VOBSUB
Идентификатор кодека/Информация : The same subtitle format used on DVDs
Язык : Russian
Текст #2
Идентификатор : 4
Формат : VobSub
Режим смешивания : zlib
Идентификатор кодека : S_VOBSUB
Идентификатор кодека/Информация : The same subtitle format used on DVDs
Язык : English
Меню
00:00:00.000 : en:00:00:00.000
00:05:00.000 : en:00:05:00.000
00:10:00.000 : en:00:10:00.000
00:15:00.000 : en:00:15:00.000
00:20:00.000 : en:00:20:00.000
00:25:00.000 : en:00:25:00.000
00:30:00.000 : en:00:30:00.000
00:35:00.000 : en:00:35:00.000
00:40:00.000 : en:00:40:00.000
00:45:00.000 : en:00:45:00.000
00:50:00.000 : en:00:50:00.000
00:55:00.000 : en:00:55:00.000
01:00:00.000 : en:01:00:00.000
01:05:00.000 : en:01:05:00.000
01:10:00.000 : en:01:10:00.000
01:15:00.000 : en:01:15:00.000
01:20:00.000 : en:01:20:00.000
01:25:00.000 : en:01:25:00.000
01:30:00.000 : en:01:30:00.000
01:35:00.000 : en:01:35:00.000
01:40:00.000 : en:01:40:00.000
01:45:00.000 : en:01:45:00.000
01:50:00.000 : en:01:50:00.000
01:55:00.000 : en:01:55:00.000

Скриншоты

        

_________________
Человек – это канат, натянутый между животным и сверхчеловеком, – канат над пропастью.
В человеке ценно то, что он мост, а не цель. Фридрих Ницше


Последний раз редактировалось: Delia (2011-08-26 18:31), всего редактировалось 2 раз(а)
Вне форума [Профиль] [ЛС]
Показать сообщения:    
Ответить на тему

Текущее время: Сегодня 14:12

Часовой пояс: GMT + 3



Вы не можете начинать темы
Вы не можете отвечать на сообщения
Вы не можете редактировать свои сообщения
Вы не можете удалять свои сообщения
Вы не можете голосовать в опросах
Вы не можете прикреплять файлы к сообщениям
Вы не можете скачивать файлы