Today is a free download without charge Download

Пятая стража / Серии: 1-2 из 64 (Василий Пичул) [2013, Мистика, детектив, SATRip]

Reply to topic
 
Author
Message

Omen ®

Longevity: 9 years

Posts: 181086

Торрент-статистика

Post 20-Feb-2013 17:44

[Quote]

Пятая стража-- Год выпуска: 2013
Производство: ООО "Объединение Телевизионных Компаний"
Жанр: Мистика, детектив
Продолжительность: ~00:45:00 серия
Субтитры: Нет
Режиссёр: Василий Пичул
В ролях: Кирилл Козаков, Майя Вознесенская, Егор Вадов, Олег Семисынов, Ирина Виноградова, Матвей Матвеев, Полина Манохина, Ростислав Бершауэр, Станислав Любшин, Регимантас Адомайтис
Описание: Вампир Феликс был отправлен силами Тьмы в ссылку в город Светлогорск. Графу Дракуле было предсказано, что падет он от руки своего соратника, вампира, и именно он, Феликс, мог прервать путь Графа Тьмы. Появление Феликса в Светлогорске сопровождали, чума, многие смерти и разорение. Немало бед навлек он на городок. Силы Света заточили Феликса в пещере, где он находился целых пять веков. И вот вампир вышел на свободу. Но теперь мысль о служении Тьме противна ему и Феликс выбрал Добро. В городке Светлогорске он открыл детективное агентство, подобрав команду из таких же как и он — не просто людей, а раскаявшихся грешников, которые готовы стоять на защите Света и Добра. Вместе они расследуют злодеяния, которые ежедневно совершаются силами тьмы и хранят покой города Светлогорска, которому суждено стать метом, где пройдет решающе сражение между силами Тьмы и Света…
Сэмпл: http://multi-up.com/833587
Качество: SATRip
Формат: AVI
Видео кодек: XviD
Аудио кодек: MP3
Видео: 720x400 (16:9), 25 fps, XviD build 50 ~1350 kbps avg, 0.19 bit/pixel
Аудио: 48 kHz, MPEG Layer 3, 2 ch, ~128.00 kbps avg
Реклама отсутствует

Внимание! Раздача ведётся путём добавления новых серий!

Внимание! Раздача ведётся путём добавления новых серий
Внимание! Раздача ведётся путём добавления новых серий; при каждом добавлении создётся новый торрент.
Чтобы начать докачку новой серии, пользователям необходимо сделать следующее:
1) остановить скачивание
2) удалить старый торрент у себя из клиента (старые серии удалять не надо)
3) скачать новый торрент и запустить его у себя в клиенте вместо старого, при этом указать клиенту путь в старую папку куда и должно происходить скачивание новых серий.
Ваш клиент при этом должен произвести хеширование (проверку) старой папки (если не производит сам - помогите ему сделать это), и будет докачивать только те серии которых у вас ещё нет. Старые серии при этом не удаляются, а продолжают раздаваться!
Eсли вы уже удалили старые серии, то предотвратить повторную закачку старых серий можно, отжав галочку в соответствовавших местах при запуске нового торрента.

MI

General
Complete name : Pyataya.strazha.2013.SATRip\Pyataya.strazha.2013.SATRip_01.seriya.avi
Format : AVI
Format/Info : Audio Video Interleave
File size : 514 MiB
Duration : 48mn 19s
Overall bit rate : 1 488 Kbps
Writing application : VirtualDubMod 1.5.10.2 (build 2540/release)
Writing library : VirtualDubMod build 2540/release
Video
ID : 0
Format : MPEG-4 Visual
Format profile : Advanced [email protected]
Format settings, BVOP : 1
Format settings, QPel : No
Format settings, GMC : No warppoints
Format settings, Matrix : Custom
Codec ID : XVID
Codec ID/Hint : XviD
Duration : 48mn 19s
Bit rate : 1 350 Kbps
Width : 720 pixels
Height : 400 pixels
Display aspect ratio : 16:9
Frame rate : 25.000 fps
Color space : YUV
Chroma subsampling : 4:2:0
Bit depth : 8 bits
Scan type : Progressive
Compression mode : Lossy
Bits/(Pixel*Frame) : 0.187
Stream size : 466 MiB (91%)
Writing library : XviD 1.2.1 (UTC 2008-12-04)
Audio
ID : 1
Format : MPEG Audio
Format version : Version 1
Format profile : Layer 3
Mode : Joint stereo
Mode extension : MS Stereo
Codec ID : 55
Codec ID/Hint : MP3
Duration : 48mn 17s
Bit rate mode : Constant
Bit rate : 128 Kbps
Channel(s) : 2 channels
Sampling rate : 48.0 KHz
Compression mode : Lossy
Stream size : 44.2 MiB (9%)
Alignment : Aligned on interleaves
Interleave, duration : 40 ms (1.00 video frame)
Interleave, preload duration : 504 ms
Writing library : LAME3.98r
Encoding settings : -m j -V 4 -q 2 -lowpass 17 -b 128

Скриншоты

Other forum [Profile] [PM]
Display posts from previous:    
Reply to topic

The time now is: Today 17:10

All times are GMT + 3 Hours



You cannot post new topics in this forum
You cannot reply to topics in this forum
You cannot edit your posts in this forum
You cannot delete your posts in this forum
You cannot vote in polls in this forum
You cannot attach files in this forum
You cannot download files in this forum