Today is a free download without charge Download

Ордер на смерть / Death Warrant (Деран Сарафян) (1990, Боевик) [720p] BDRip

Reply to topic
 
Author
Message

Omen ®

Longevity: 8 years 5 months

Posts: 181087

Торрент-статистика

Post 20-Feb-2013 16:55

[Quote]

Ордер на смерть / Death Warrant - Русское название: Ордер на смерть
Оригинальное название: Death Warrant
Год выпуска: 1990
Жанр: Боевик
Режиссер: Деран Сарафян
Актеры: Жан-Клод Ван Дамм, Роберт Гийом, Синтия Гибб, Джордж Дикерсон, Арт ЛаФлёр, Пэтрик Килпэтрик, Джошуа Джон Миллер, Хэнк Стоун, Конрад Данн, Джек Бэннон
Описание фильма:
Ван Дамм в роли офицера Луиса Берка, «нечистого на руку» полицейского детектива, отправляется под видом осуждённого в тюрьму «Харрисон», чтобы раскрыть серию убийств заключённых. В стенах тюрьмы он сталкивается с жестокостью сокамерников, с коррумпированными охранниками, со смертью и предательством всех мастей.Когда Берк узнает шокирующую тайну тюрьмы, он должен совершить дерзкий побег — его последний шанс вырваться из лап сотен осуждённых головорезов, возглавляемых его кровным врагом.-Продолжительность: 01:29:03
Перевод:
• Профессиональный (многоголосый закадровый) [НТВ]
• Авторский (одноголосый закадровый) [Андрей Гаврилов]
• Профессиональный (многоголосый закадровый) [1+1]
Cубтитры: английские, русские
Оригинальная аудиодорожка: английский

Качество видео: BDRip 720p
Формат видео: MKV
Видео: MPEG-4 AVC, 8200 Кбит/с, 1280x694
Аудио: AC3 2 ch, 48 КГц, 224 Кбит/с | (НТВ)
Аудио #2: DTS 2 ch, 48 КГц, 1509 Кбит/с | (А. Гаврилов)
Аудио #3: AC3 2 ch, 48 КГц, 224 Кбит/с | (1+1)
Аудио #4: DTS 2 ch, 48 КГц, 1509 Кбит/с | оригинальная

MediaInfo

General
Unique ID : 180646737228794125750861639812955113362 (0x87E74BCA7D0BC107AC9895EC949E0792)
Complete name : D:\Server\Видео\Фильмы\Order.na.smert.1990.x264.BDRip(720p).mkv
Format : Matroska
Format version : Version 2
File size : 7.25 GiB
Duration : 1h 29mn
Overall bit rate : 11.7 Mbps
Movie name : = FILMRUS = rip by Painter
Encoded date : UTC 2012-11-04 10:39:42
Writing application : mkvmerge v5.4.0 ('Piper') built on Mar 10 2012 13:34:39
Writing library : libebml v1.2.3 + libmatroska v1.3.0
Video
ID : 1
Format : AVC
Format/Info : Advanced Video Codec
Format profile : [url=mailto:[email protected]][email protected][/url]
Format settings, CABAC : Yes
Format settings, ReFrames : 9 frames
Codec ID : V_MPEG4/ISO/AVC
Duration : 1h 29mn
Bit rate : 8 200 Kbps
Width : 1 280 pixels
Height : 694 pixels
Display aspect ratio : 1.85:1
Frame rate mode : Constant
Frame rate : 23.976 fps
Color space : YUV
Chroma subsampling : 4:2:0
Bit depth : 8 bits
Scan type : Progressive
Bits/(Pixel*Frame) : 0.385
Stream size : 4.95 GiB (68%)
Writing library : x264 core 125 r2200 999b753
Encoding settings : cabac=1 / ref=9 / deblock=1:-3:-3 / analyse=0x3:0x133 / me=umh / subme=11 / psy=1 / psy_rd=1.00:0.05 / mixed_ref=1 / me_range=32 / chroma_me=1 / trellis=2 / 8x8dct=1 / cqm=0 / deadzone=21,11 / fast_pskip=0 / chroma_qp_offset=-3 / threads=6 / lookahead_threads=1 / sliced_threads=0 / nr=0 / decimate=0 / interlaced=0 / bluray_compat=0 / constrained_intra=0 / bframes=9 / b_pyramid=2 / b_adapt=2 / b_bias=0 / direct=3 / weightb=1 / open_gop=0 / weightp=2 / keyint=250 / keyint_min=23 / scenecut=40 / intra_refresh=0 / rc=2pass / mbtree=0 / bitrate=8200 / ratetol=1.0 / qcomp=0.60 / qpmin=10 / qpmax=51 / qpstep=4 / cplxblur=20.0 / qblur=0.5 / ip_ratio=1.40 / pb_ratio=1.30 / aq=1:0.80
Language : English
Default : Yes
Forced : No
Audio #1
ID : 2
Format : AC-3
Format/Info : Audio Coding 3
Format profile : Dolby Digital
Mode extension : CM (complete main)
Format settings, Endianness : Big
Codec ID : A_AC3
Duration : 1h 29mn
Bit rate mode : Constant
Bit rate : 224 Kbps
Channel(s) : 2 channels
Channel positions : Front: L R
Sampling rate : 48.0 KHz
Bit depth : 16 bits
Compression mode : Lossy
Stream size : 143 MiB (2%)
Title : Многоголосый (НТВ)
Language : Russian
Default : Yes
Forced : No
Audio #2
ID : 3
Format : DTS
Format/Info : Digital Theater Systems
Mode : 16
Format settings, Endianness : Big
Codec ID : A_DTS
Duration : 1h 29mn
Bit rate mode : Constant
Bit rate : 1 509 Kbps
Channel(s) : 2 channels
Channel positions : Front: L R
Sampling rate : 48.0 KHz
Bit depth : 24 bits
Compression mode : Lossy
Stream size : 961 MiB (13%)
Title : Гаврилов
Language : Russian
Default : No
Forced : No
Audio #3
ID : 4
Format : AC-3
Format/Info : Audio Coding 3
Mode extension : CM (complete main)
Format settings, Endianness : Big
Codec ID : A_AC3
Duration : 1h 29mn
Bit rate mode : Constant
Bit rate : 224 Kbps
Channel(s) : 2 channels
Channel positions : Front: L R
Sampling rate : 48.0 KHz
Bit depth : 16 bits
Compression mode : Lossy
Stream size : 143 MiB (2%)
Title : Многоголосый (1+1)
Language : Ukrainian
Default : No
Forced : No
Audio #4
ID : 5
Format : DTS
Format/Info : Digital Theater Systems
Mode : 16
Format settings, Endianness : Big
Codec ID : A_DTS
Duration : 1h 29mn
Bit rate mode : Constant
Bit rate : 1 509 Kbps
Channel(s) : 2 channels
Channel positions : Front: L R
Sampling rate : 48.0 KHz
Bit depth : 24 bits
Compression mode : Lossy
Stream size : 961 MiB (13%)
Language : English
Default : No
Forced : No
Text #1
ID : 6
Format : UTF-8
Codec ID : S_TEXT/UTF8
Codec ID/Info : UTF-8 Plain Text
Language : Russian
Default : No
Forced : No
Text #2
ID : 7
Format : UTF-8
Codec ID : S_TEXT/UTF8
Codec ID/Info : UTF-8 Plain Text
Language : English
Default : No
Forced : No
Menu
00:00:00.000 : :Chapter 01
00:05:19.986 : :Chapter 02
00:09:28.401 : :Chapter 03
00:15:58.499 : :Chapter 04
00:22:16.835 : :Chapter 05
00:25:21.269 : :Chapter 06
00:33:30.008 : :Chapter 07
00:36:32.231 : :Chapter 08
00:42:44.478 : :Chapter 09
00:46:57.397 : :Chapter 10
00:51:52.067 : :Chapter 11
00:55:57.854 : :Chapter 12
01:02:11.185 : :Chapter 13
01:08:19.929 : :Chapter 14
01:14:06.817 : :Chapter 15
01:24:30.982 : :Chapter 16
01:29:03.296 : :Chapter 17
-Скриншоты:
         
Other forum [Profile] [PM]
Display posts from previous:    
Reply to topic

The time now is: Today 11:03

All times are GMT + 3 Hours



You cannot post new topics in this forum
You cannot reply to topics in this forum
You cannot edit your posts in this forum
You cannot delete your posts in this forum
You cannot vote in polls in this forum
You cannot attach files in this forum
You cannot download files in this forum