Today is a free download without charge Download

Эра драконов / Age of the Dragons (Райан Литтл / Ryan Little) [2011, США, фантастика, фэнтези, боевик, триллер, DVD9] R5 MVO [«Вольга»]

Reply to topic
 
Author
Message

Varius ®

Gender:

Longevity: 9 years 7 months

Posts: 2416

Location: Hell

Торрент-статистика

Post 28-May-2011 22:12

[Quote]

-Эра драконов / Age of the Dragons -Страна: США
Студия: Cinedome, Dragon Quest Productions, KOAN
Жанр: фантастика, фэнтези, боевик, триллер
Год выпуска: 2011
Мировая премьера: 21 марта 2011
Дата выхода DVD: 26 мая 2011, «Вольга»
Продолжительность: 01:28:13
Перевод: Профессиональный (многоголосый закадровый) [Лицензия]
Cубтитры: нет-Режиссер: Райан Литтл / Ryan Little-В ролях: Дэнни Гловер, Винни Джонс, Кори Севьер, София Пернас, Ларри Бэгби, Джон Кепа Крус, Дэвид Морган-Описание: Герои фильма живут в средневековом мире, где существуют драконы. Капитан Ахав (Денни Гловер) одержим охотой за Белым Драконом, который убил его семью, а самого Ахава обезобразил шрамами. В фильме есть харизматичный гарпунер Измаил, а вместе с Ахавом охотится на Белого Дракона его приемная дочь Рейчел. Ей придется выбирать идти до конца за одержимым убийством заклятого врага отцом или начать новую жизнь с Измаилом.-Бонусы: нет- -Релиз группы: -Качество: DVD9 R5
Формат: DVD-Video
Видео кодек: MPEG2
Аудио кодек: AC3 + DTS
Видео: PAL 16:9 (720x576(0.750)) MPEG Video,25,000 кадр/сек, 7772 Кбит/сек
Аудио #1: Russian (Dolby AC3, 6 ch) 256 Кбит/сек, 48,0 КГц
Аудио #2: Russian (DTS, 6 ch) 768 Кбит/сек, 48,0 КГц--

DVDInfo

Title: Мой диск
Size: 5.22 Gb ( 5 471 918 KBytes ) - DVD-9
Enabled regions: 1, 2, 3, 4, 5, 6, 7, 8
VTS_01 :
Play Length: 00:00:10
Video: PAL 16:9 (720x576) VBR, Auto Pan&Scan, Auto Letterboxed
VTS_02 :
Play Length: 00:00:06
Video: PAL 16:9 (720x576) VBR, Auto Pan&Scan, Auto Letterboxed
VTS_03 :
Play Length: 01:28:13
Video: PAL 16:9 (720x576) VBR, Auto Pan&Scan, Auto Letterboxed
Audio:
Not specified (Dolby AC3, 6 ch)
Not specified (DTS, 6 ch)

MediaInfo

Общее
Полное имя : F:\Новинки 2011\Era.drakonov.2011.DVD9\VIDEO_TS\VTS_03_1.VOB
Формат : MPEG-PS
Размер файла : 1024 Мбайт
Продолжительность : 15 м.
Общий поток : 8961 Кбит/сек
Видео
Идентификатор : 224 (0xE0)
Формат : MPEG Video
Версия формата : Version 2
Профиль формата : [email protected]
Параметр BVOP формата : Да
Параметр матрицы формата : По умолчанию
Параметры GOP формата : M=3, N=15
Продолжительность : 15 м.
Вид битрейта : Переменный
Битрейт : 7772 Кбит/сек
Номинальный битрейт : 8800 Кбит/сек
Ширина : 720 пикс.
Высота : 576 пикс.
Соотношение сторон : 16:9
Частота кадров : 25,000 кадр/сек
Стандарт вещания : PAL
Цветовое пространство : YUV
Подвыборка цветности : 4:2:0
Битовая глубина : 8 бит
Тип развёртки : Чересстрочная
Порядок развёртки : Верхнее поле первое
Метод сжатия : С потерями
Бит/(Пиксели*Кадры) : 0.750
Размер потока : 888 Мбайт (87%)
Аудио #1
Идентификатор : 189 (0xBD)-128 (0x80)
Формат : AC-3
Формат/Информация : Audio Coding 3
Расширение режима : CM (complete main)
Режим смешивания : DVD-Video
Продолжительность : 15 м.
Вид битрейта : Постоянный
Битрейт : 256 Кбит/сек
Канал(ы) : 6 канала(ов)
Расположение каналов : Front: L C R, Side: L R, LFE
Частота : 48,0 КГц
Битовая глубина : 16 бит
Метод сжатия : С потерями
Размер потока : 29,2 Мбайт (3%)
Аудио #2
Идентификатор : 189 (0xBD)-137 (0x89)
Формат : DTS
Формат/Информация : Digital Theater Systems
Режим смешивания : DVD-Video
Продолжительность : 15 м.
Вид битрейта : Постоянный
Битрейт : 755 Кбит/сек
Канал(ы) : 6 канала(ов)
Расположение каналов : Front: L C R, Side: L R, LFE
Частота : 48,0 КГц
Битовая глубина : 16 бит
Метод сжатия : С потерями
Размер потока : 86,2 Мбайт (8%)

Скриншоты меню

     

Скриншоты фильма

               

_________________

Создавая "Новую папку", не считайте себя Создателем - это право Вам дано Админом


Other forum [Profile] [PM]
Display posts from previous:    
Reply to topic

The time now is: Today 08:50

All times are GMT + 3 Hours



You cannot post new topics in this forum
You cannot reply to topics in this forum
You cannot edit your posts in this forum
You cannot delete your posts in this forum
You cannot vote in polls in this forum
You cannot attach files in this forum
You cannot download files in this forum