Today is a free download without charge Download

Прерванная Жизнь / Girl, Interrupted (Джеймс Мэнголд / James Mangold) [1999, Германия, США, драма, биография, HDTVRip 720p] MVO + AVO + Ukr + Original Eng + Subs (Rus, Eng)

Reply to topic
 
Author
Message

Omen ®

Longevity: 8 years 5 months

Posts: 181087

Торрент-статистика

Post 20-Feb-2013 08:56

[Quote]

Прерванная жизнь
Girl, Interrupted
- Страна: Германия, США
Год выхода: 1999
Жанр: драма, биография
Продолжительность: 02:02:11
Перевод 1: Профессиональный (многоголосый закадровый) - R5
Перевод 2: Авторский (одноголосый закадровый) - Живов
Перевод 3: Украинский
Оригинальная аудиодорожка: английский
Cубтитры: русские, английские
Режиссер: Джеймс Мэнголд / James Mangold
В ролях: Вайнона Райдер, Бриттани Мерфи, Анджелина Джоли, Клеа ДюВолл, Элизабет Мосс, Джаред Лето, Джеффри Тэмбор, Ванесса Редгрэйв, Анджела Беттис, Вупи Голдберг, Джиллиан Арменанте, Друси МакДэниэл, Элисон Клер, Кристина Майерс, Джоанна Кернс, Трэвис Файн, Глория Барнхарт, Джози Гэммелл, Брюс Олтман, Мэри Кей Плэйс, Рэй Бэйкер, КаДи Стриклэнд, Кристиан Монро, Кертвуд Смит, Дэвид Скотт Тэйлор
Сюжет фильма:
В конце шестидесятых дикие сердцем отправлялись в Вудсток, неудачники — на войну, а те, кому отправиться было некуда, — в бездну. После того, как Сюзанне поставили диагноз «пограничное состояние», девушка оказывается в закрытом психиатрическом учреждении, и чтобы подняться со дна пропасти к свету, она должна победить хаос в самой себе и в окружающем мире. Но так трудно сражаться с бесплотным врагом, особенно если это твоя собственная тень…
IMDb: 7.20 (78 186)
Семпл: 44,3мб
Исходник: 1080i
Качество: HDTVRip 720p {by big1987}
Формат видео: MKV
Видео: кодек: h.264, размер кадра: 1280x692, fps: 25, битрейт: 3597.00 Kbps
Аудио#1: аудиокодек: AC3 5.1, 48 KHz битрейт аудио: 448 кб/с - MVO, R5
Аудио#2: аудиокодек: AC3 5.1, 48 KHz битрейт аудио: 448 кб/с - AVO, Живов
Аудио#3: аудиокодек: AC3 5.1, 48 KHz битрейт аудио: 448 кб/с - MVO, Украинский
Аудио#4: аудиокодек: AC3 5.1, 48 KHz битрейт аудио: 448 кб/с - Eng
Формат субтитров: softsub (SRT)
Размер рипа: 4,60Gb [без одной любой аудиодорожки поместится на dvd5]

x264:

frame I:1272 Avg QP:14.64 size: 94788
frame P:45808 Avg QP:16.23 size: 37587
frame B:136205 Avg QP:18.45 size: 10675
consecutive B-frames: 1.1% 1.5% 2.8% 84.5% 4.9% 3.0% 1.1% 0.6% 0.5%

MediaInfo

Format : Matroska
Format version : Version 2
File size : 4.60 GiB
Duration : 2h 2mn
Overall bit rate : 5 391 Kbps
Movie name : Прерванная Жизнь [1999, HDTVRip/720p] || big1987
Encoded date : UTC 2013-02-08 07:19:03
Writing application : mkvmerge v5.8.0 ('No Sleep / Pillow') built on Sep 2 2012 15:37:04
Writing library : libebml v1.2.3 + libmatroska v1.3.0
Video
ID : 1
Format : AVC
Format/Info : Advanced Video Codec
Format profile : [email protected]
Format settings, CABAC : Yes
Format settings, ReFrames : 8 frames
Codec ID : V_MPEG4/ISO/AVC
Duration : 2h 2mn
Bit rate : 3 492 Kbps
Width : 1 280 pixels
Height : 692 pixels
Display aspect ratio : 1.85:1
Frame rate mode : Constant
Frame rate : 25.000 fps
Color space : YUV
Chroma subsampling : 4:2:0
Bit depth : 8 bits
Scan type : Progressive
Bits/(Pixel*Frame) : 0.158
Stream size : 2.98 GiB (65%)
Title : Прерванная Жизнь [1999, HDTVRip/720p] || big1987
Writing library : x264 core 129 r2245 bc13772
Encoding settings : cabac=1 / ref=8 / deblock=1:-3:-2 / analyse=0x3:0x133 / me=umh / subme=10 / psy=1 / psy_rd=1.00:0.10 / mixed_ref=1 / me_range=24 / chroma_me=1 / trellis=2 / 8x8dct=1 / cqm=0 / deadzone=21,11 / fast_pskip=0 / chroma_qp_offset=-3 / threads=6 / lookahead_threads=1 / sliced_threads=0 / nr=0 / decimate=0 / interlaced=0 / bluray_compat=0 / constrained_intra=0 / bframes=8 / b_pyramid=2 / b_adapt=2 / b_bias=0 / direct=1 / weightb=1 / open_gop=0 / weightp=2 / keyint=250 / keyint_min=25 / scenecut=40 / intra_refresh=0 / rc_lookahead=40 / rc=crf / mbtree=0 / crf=18.8 / qcomp=0.60 / qpmin=0 / qpmax=69 / qpstep=4 / vbv_maxrate=40000 / vbv_bufsize=30000 / crf_max=0.0 / nal_hrd=none / ip_ratio=1.40 / pb_ratio=1.30 / aq=1:1.00
Language : English
Default : Yes
Forced : No
Color primaries : BT.709
Transfer characteristics : BT.709
Matrix coefficients : BT.709
Audio #1
ID : 2
Format : AC-3
Format/Info : Audio Coding 3
Mode extension : CM (complete main)
Format settings, Endianness : Big
Codec ID : A_AC3
Duration : 2h 2mn
Bit rate mode : Constant
Bit rate : 448 Kbps
Channel(s) : 6 channels
Channel positions : Front: L C R, Side: L R, LFE
Sampling rate : 48.0 KHz
Bit depth : 16 bits
Compression mode : Lossy
Stream size : 392 MiB (8%)
Title : MVO {R5} [AC3 5.1 @448kbps]
Language : Russian
Default : Yes
Forced : No
Audio #2
ID : 3
Format : AC-3
Format/Info : Audio Coding 3
Mode extension : CM (complete main)
Format settings, Endianness : Big
Codec ID : A_AC3
Duration : 2h 2mn
Bit rate mode : Constant
Bit rate : 448 Kbps
Channel(s) : 6 channels
Channel positions : Front: L C R, Side: L R, LFE
Sampling rate : 48.0 KHz
Bit depth : 16 bits
Compression mode : Lossy
Stream size : 392 MiB (8%)
Title : AVO {Живов} [AC3 5.1 @448kbps]
Language : Russian
Default : No
Forced : No
Audio #3
ID : 4
Format : AC-3
Format/Info : Audio Coding 3
Mode extension : CM (complete main)
Format settings, Endianness : Big
Codec ID : A_AC3
Duration : 2h 2mn
Bit rate mode : Constant
Bit rate : 448 Kbps
Channel(s) : 6 channels
Channel positions : Front: L C R, Side: L R, LFE
Sampling rate : 48.0 KHz
Bit depth : 16 bits
Compression mode : Lossy
Stream size : 392 MiB (8%)
Title : MVO [AC3 5.1 @448kbps]
Language : Ukrainian
Default : No
Forced : No
Audio #4
ID : 5
Format : AC-3
Format/Info : Audio Coding 3
Mode extension : CM (complete main)
Format settings, Endianness : Big
Codec ID : A_AC3
Duration : 2h 2mn
Bit rate mode : Constant
Bit rate : 448 Kbps
Channel(s) : 6 channels
Channel positions : Front: L C R, Side: L R, LFE
Sampling rate : 48.0 KHz
Bit depth : 16 bits
Compression mode : Lossy
Stream size : 392 MiB (8%)
Title : [AC3 5.1 @448kbps]
Language : English
Default : No
Forced : No
Text #1
ID : 6
Format : UTF-8
Codec ID : S_TEXT/UTF8
Codec ID/Info : UTF-8 Plain Text
Title : R5
Language : Russian
Default : No
Forced : No
Text #2
ID : 7
Format : UTF-8
Codec ID : S_TEXT/UTF8
Codec ID/Info : UTF-8 Plain Text
Title : A.A.A. academ
Language : Russian
Default : No
Forced : No
Text #3
ID : 8
Format : UTF-8
Codec ID : S_TEXT/UTF8
Codec ID/Info : UTF-8 Plain Text
Title : Uncensored
Language : Russian
Default : No
Forced : No
Text #4
ID : 9
Format : UTF-8
Codec ID : S_TEXT/UTF8
Codec ID/Info : UTF-8 Plain Text
Language : English
Default : No
Forced : No

Скриншоты

Other forum [Profile] [PM]
Display posts from previous:    
Reply to topic

The time now is: Today 11:31

All times are GMT + 3 Hours



You cannot post new topics in this forum
You cannot reply to topics in this forum
You cannot edit your posts in this forum
You cannot delete your posts in this forum
You cannot vote in polls in this forum
You cannot attach files in this forum
You cannot download files in this forum