Today is a free download without charge Download

Универсальный солдат 4 / Universal Soldier: Day of Reckoning (Джон Хайамс)[2012, фантастика, боевик, триллер, 1080p,HDRip]

Reply to topic
 
Author
Message

Meshanik ®

Gender:

Longevity: 8 years 10 months

Posts: 3866

Location: Los Angeles

Торрент-статистика

Post 20-Feb-2013 07:49

[Quote]

Универсальный солдат 4 / Universal Soldier: Day of Reckoning
«Under their own command»
- Русское название: Универсальный солдат 4
Оригинальное название: Universal Soldier: Day of Reckoning
Год выпуска: 2012
Производство: США / Baumgarten Management, Foresight Unlimited, Signature Pictures
Жанр: Фантастика, Боевик, Триллер
Продолжительность: 01:53:37
Перевод: Дублированный [лицензия]
Субтитры: Отсутствуют-Дата мировой премьеры: 23 августа 2012
Дата российской премьеры: 4 октября 2012, «Люксор» 3D
Дата выхода DVD релиза: 5 ноября 2012, «Новый Диск»-Режиссер: Джон Хайамс
Актеры: Жан-Клод Ван Дамм, Скотт Эдкинс, Андрей Арловский, Дольф Лундгрен, Кристофер Ван Варенберг, Джеймс Роулингс, Дэвид Дженсен, Мария Боннер, Рас Блэквелл, Остин Нолти-Описание фильма:
Настоящее время. Программа «Unisol» по-прежнему актуальна и снова введена в эксплуатацию. Давним и непримиримым врагам времён Вьетнамской войны Эндрю Скотту и Люку Деверо суждено встретиться в очередной раз, дабы продолжить своё извечное противостояние и нескончаемую борьбу. Однако, новые опасности и трудности заставляют двух солдат на время объединиться пред лицом общей неприятности, что весьма ненадолго. Ясно одно: кровавый исход и брутальный финал неизбежен…- -Качество видео: BDRip [ENCOUNTERS]
Видеокодек: MPEG-4 AVC/H.264
Битрейт видео: ~5144 Кбит/сек
Размер кадра: 1920x816
Аудио #1: Русский (Dolby AC3, 6 ch) 448 Кбит/сек
Аудио #2: Английский (DTS, 6 ch) 1510 Кбит/сек
-

MediaInfo...

Код:
General
Unique ID                                : 218753165016440063067980870041913961952 (0xA49253BC65B46F86BD06251243A6ADE0)
Complete name                            : H:\Универсальный.солдат.4.2012.D.1080p.BDRip.mkv
Format                                   : Matroska
Format version                           : Version 4 / Version 2
File size                                : 5.75 GiB
Duration                                 : 1h 53mn
Overall bit rate                         : 7 245 Kbps
Movie name                               :  ПаZиtиFFк@
Encoded date                             : UTC 2010-02-22 21:41:31
Writing application                      : mkvmerge v5.9.0 ('On The Loose') built on Dec  9 2012 15:37:01
Writing library                          : libebml v1.3.0 + libmatroska v1.4.0
Video
ID                                       : 1
Format                                   : AVC
Format/Info                              : Advanced Video Codec
Format profile                           : [email protected]
Format settings, CABAC                   : Yes
Format settings, ReFrames                : 5 frames
Codec ID                                 : V_MPEG4/ISO/AVC
Duration                                 : 1h 53mn
Bit rate                                 : 5 144 Kbps
Width                                    : 1 920 pixels
Height                                   : 816 pixels
Display aspect ratio                     : 2.35:1
Frame rate mode                          : Constant
Frame rate                               : 23.976 fps
Color space                              : YUV
Chroma subsampling                       : 4:2:0
Bit depth                                : 8 bits
Scan type                                : Progressive
Bits/(Pixel*Frame)                       : 0.137
Stream size                              : 4.08 GiB (71%)
Title                                    : /*spam*/ + ПаZиtиFFк@
Writing library                          : x264 core 129 r2230 1cffe9f
Encoding settings                        : cabac=1 / ref=5 / deblock=1:-1:-1 / analyse=0x3:0x133 / me=umh / subme=7 / psy=1 / psy_rd=1.00:0.15 / mixed_ref=1 / me_range=16 / chroma_me=1 / trellis=1 / 8x8dct=1 / cqm=0 / deadzone=21,11 / fast_pskip=0 / chroma_qp_offset=-3 / threads=12 / lookahead_threads=2 / sliced_threads=0 / nr=0 / decimate=1 / interlaced=0 / bluray_compat=0 / constrained_intra=0 / bframes=3 / b_pyramid=2 / b_adapt=1 / b_bias=0 / direct=1 / weightb=1 / open_gop=0 / weightp=2 / keyint=250 / keyint_min=23 / scenecut=40 / intra_refresh=0 / rc_lookahead=40 / rc=crf / mbtree=1 / crf=20.0 / qcomp=0.60 / qpmin=0 / qpmax=69 / qpstep=4 / ip_ratio=1.40 / aq=1:1.00
Language                                 : English
Default                                  : Yes
Forced                                   : No
Audio #1
ID                                       : 2
Format                                   : AC-3
Format/Info                              : Audio Coding 3
Mode extension                           : CM (complete main)
Format settings, Endianness              : Big
Codec ID                                 : A_AC3
Duration                                 : 1h 53mn
Bit rate mode                            : Constant
Bit rate                                 : 448 Kbps
Channel(s)                               : 6 channels
Channel positions                        : Front: L C R, Side: L R, LFE
Sampling rate                            : 48.0 KHz
Bit depth                                : 16 bits
Compression mode                         : Lossy
Stream size                              : 364 MiB (6%)
Title                                    : Dub
Language                                 : Russian
Default                                  : Yes
Forced                                   : No
Audio #2
ID                                       : 3
Format                                   : DTS
Format/Info                              : Digital Theater Systems
Mode                                     : 16
Format settings, Endianness              : Big
Codec ID                                 : A_DTS
Duration                                 : 1h 53mn
Bit rate mode                            : Constant
Bit rate                                 : 1 509 Kbps
Channel(s)                               : 6 channels
Channel positions                        : Front: L C R, Side: L R, LFE
Sampling rate                            : 48.0 KHz
Bit depth                                : 24 bits
Compression mode                         : Lossy
Stream size                              : 1.20 GiB (21%)
Title                                    : Englisch_DTS_1510kbps
Language                                 : English
Default                                  : No
Forced                                   : No
Menu
00:00:00.000                             : en:00:00:00.000
00:06:36.104                             : en:00:06:36.104
00:16:42.460                             : en:00:16:42.460
00:23:33.078                             : en:00:23:33.078
00:29:24.012                             : en:00:29:24.012
00:37:57.192                             : en:00:37:57.192
00:49:45.983                             : en:00:49:45.983
00:59:27.230                             : en:00:59:27.230
01:08:42.452                             : en:01:08:42.452
01:18:18.903                             : en:01:18:18.903
01:27:51.892                             : en:01:27:51.892
01:34:59.861                             : en:01:34:59.861
-Скриншоты:
       
       
Other forum [Profile] [PM]
Similar theme
Forum Topic Author Torrent Replies Last Post
./templates/default/images/folder_dl.gif Техническая и научно-популярная литература Марк Хаузер | Мораль и разум. Как природа создавала наше универсальное чувство добра и зла (2008) [PDF] UndegraundMen
1 | 0

0 | 839

2

2013-10-10 17:03
UndegraundMen Latest
./templates/default/images/folder_dl.gif Техническая и научно-популярная литература 12,7-мм пулемет НСВ-12,7 УТЕС на универсальном станке. Техническое описание и инструкция по эксплуатации [1976, DjVu, RUS] Omen
1 | 0

0 | 798

6

2015-08-06 09:00
Omen Latest
Display posts from previous:    
Reply to topic

The time now is: Today 01:24

All times are GMT + 3 Hours



You cannot post new topics in this forum
You cannot reply to topics in this forum
You cannot edit your posts in this forum
You cannot delete your posts in this forum
You cannot vote in polls in this forum
You cannot attach files in this forum
You cannot download files in this forum