Today is a free download without charge Download

ОХОТА НА ГАУЛЯЙТЕРА / Серии: 1-10 из 10/ (Олег Базилов) [2012, военная драма, WEBRip 720p]

Reply to topic
 
Author
Message

Omen ®

Longevity: 9 years 1 month

Posts: 181086

Торрент-статистика

Post 20-Feb-2013 00:48

[Quote]

ОХОТА НА ГАУЛЯЙТЕРА
Год выпуска: 2012
Производство: Россия, Star Media
Жанр: военная драма
Продолжительность: ~00:50:00
Режиссёр: Олег Базилов
В ролях: Анастасия Заворотнюк, Мария Машкова, Александр Дьяченко, Людмила Чурсина, Лариса Лужина, Ирина Бякова, Андрей Межулис, Uwe Jellinek
Описание: Минск 1970 год. Торжественное заседание посвященное награждению комсомола Белорусской ССР орденом Ленина. В президиуме на почетном месте пожилая женщина. Это герой Великой Отечественной войны – Мария Архипова.
Открыть собрание предоставляется еще одному почетному гостю, Герою Советского Союза Галине Помазан – несмотря на доблестную военную биографию - все еще эффектной, моложавой женщине.
Узнав о приезде Галины, курирующий собрание сотрудник госбезопасности приходит в панику – встреча Архиповой с Помазан крайне нежелательна.
И на самом деле, во время пафосного рассказа Галины о казни палача белорусского народа - гауляйтера Вильгельма Краубе, Архипова не смогла сдержать гнев и набросилась на докладчицу.
Очевидно, что есть еще одна неофициальная версия ликвидации гауляйтера, исполнительницами которой являлись две советские женщины, сестры по оружию, коммунистка Архипова и беспартийная Помазан. Но КГБ тщательно скрывает все правдивые подробности этой операции - несомненно, на то есть серьёзные причины.
Сэмпл: http://multi-up.com/833247
Качество: WEBRip 720p
Формат: MP4
Видео кодек: H.264
Аудио кодек: AAC
Видео: MPEG4 Video (H264) 1280x720 25fps 1800kbps 0.078 bit/pixel
Аудио: AAC 44100Hz stereo 192kbps

MI

Общее
Полное имя : D:\МОИ РАЗДАЧИ\Сериалы HD\ОХОТА НА ГАУЛЯЙТЕРА\Охота на гауляйтера_hdtv720p\Охота на гауляйтера_hdtv720p_01.mkv
Формат : MPEG-4
Профиль формата : Base Media
Идентификатор кодека : isom
Размер файла : 735 Мбайт
Продолжительность : 51 м.
Общий поток : 1991 Кбит/сек
Программа кодирования : Lavf54.22.104
Видео
Идентификатор : 1
Формат : AVC
Формат/Информация : Advanced Video Codec
Профиль формата : [email protected]
Параметр CABAC формата : Да
Параметр ReFrames формата : 3 кадра
Идентификатор кодека : avc1
Идентификатор кодека/Информация : Advanced Video Coding
Продолжительность : 51 м.
Битрейт : 1800 Кбит/сек
Ширина : 1280 пикселей
Высота : 720 пикселей
Соотношение сторон : 16:9
Режим частоты кадров : Постоянный
Частота кадров : 25,000 кадров/сек
Цветовое пространство : YUV
Субдискретизация насыщенности : 4:2:0
Битовая глубина : 8 бит
Тип развёртки : Прогрессивная
Бит/(Пиксели*Кадры) : 0.078
Размер потока : 662 Мбайт (90%)
Библиотека кодирования : x264 core 120
Настройки программы : cabac=1 / ref=3 / deblock=1:0:0 / analyse=0x3:0x133 / me=umh / subme=7 / psy=1 / psy_rd=1.00:0.00 / mixed_ref=1 / me_range=32 / chroma_me=1 / trellis=2 / 8x8dct=1 / cqm=0 / deadzone=21,11 / fast_pskip=1 / chroma_qp_offset=-2 / threads=12 / sliced_threads=0 / nr=0 / decimate=1 / interlaced=0 / bluray_compat=0 / constrained_intra=0 / bframes=0 / weightp=0 / keyint=75 / keyint_min=26 / scenecut=40 / intra_refresh=0 / rc_lookahead=50 / rc=2pass / mbtree=0 / bitrate=1800 / ratetol=1.0 / qcomp=0.20 / qpmin=10 / qpmax=51 / qpstep=4 / cplxblur=20.0 / qblur=0.5 / vbv_maxrate=2000 / vbv_bufsize=2000 / nal_hrd=none / ip_ratio=1.40 / aq=1:1.00
Основные цвета : BT.709
Характеристики трансфера : BT.709
Коэффициенты матрицы : BT.709
Аудио
Идентификатор : 2
Формат : AAC
Формат/Информация : Advanced Audio Codec
Профиль формата : LC
Идентификатор кодека : 40
Продолжительность : 51 м.
Вид битрейта : Постоянный
Битрейт : 192 Кбит/сек
Каналы : 2 канала
Расположение каналов : Front: L R
Частота : 44,1 КГц
Метод сжатия : С потерями
Размер потока : 70,6 Мбайт (10%)

Скриншоты










Other forum [Profile] [PM]
Similar theme
Forum Topic Author Torrent Replies Last Post
./templates/default/images/folder_dl.gif Зарубежное кино Крикуны 2: Охота / Screamers 2: The Hunting (2009) BDRip [H.264/1080p] RazBoyNik
1 | 0

0 | 2184

11

2017-02-05 19:09
RazBoyNik Latest
Display posts from previous:    
Reply to topic

The time now is: Today 23:51

All times are GMT + 3 Hours



You cannot post new topics in this forum
You cannot reply to topics in this forum
You cannot edit your posts in this forum
You cannot delete your posts in this forum
You cannot vote in polls in this forum
You cannot attach files in this forum
You cannot download files in this forum