Today is a free download without charge Download

Была любовь / Серии: 01-04 из 16 (Николай Грибоедов) [2010, Биография, мелодрама, семейное, HDTV 1080i]

Reply to topic
 
Author
Message

Omen ®

Longevity: 9 years 1 month

Posts: 181086

Торрент-статистика

Post 20-Feb-2013 00:48

[Quote]

Была любовь
Год выпуска: 2010
Производство: Киностудия «Талан»
Жанр: Биография, мелодрама, семейное
Продолжительность: ~ 00:45:00
Субтитры: Отсутствуют
Режиссёр: Николай Грибоедов
В ролях: Анастасия Савосина, Екатерина Вуличенко, Дарья Румянцева, Андрей Финягин, Александр Дьяченко, Алексей Кортнев, Марина Яковлева, Валерий Сторожик, Елена Дробышева, Михаил Хмуров, Константин Юшкевич, Сергей Мухин, Дмитрий Муляр, Тимофей Смирнов, Константин Юдаев, Эльмира Метревели, Сергей Комаров (II), Анжелика Вольская (Вострикова), Сергей Астахов, Анатолий Руденко, Андрей Андреев, Сергей Губанов, Роман Полянский, Евгений Самарин, Екатерина Купченко, Дмитрий Богданов, Антон Семкин, Максим Заусалин, Данила Перов, Наталья Громушкина, Максим Пинскер, Яна Куц, Александра Живова, Кирилл Иванченко, Юрий Балицкий, Роман Ладнев, Сергей Ефремов, Константин Балакирев, Иван Соловьев (II), Роман Вьюшкин, Нина Лощинина, Елена Мельникова (Кузнецова), Ирина Чериченко, Наталья (Нателла) Третьякова, Олег Гущин, Полина Беленькая, Анна Сиротина, Алла Малкова (Мараш), Владислав Демченко, Валерия (Алла) Перфилова, Иосиф Пригожин, Сергей Померанцев, Наталья Оленина, Антон Никушин, Кирилл Золыгин, Антон Капанин, Виталий Вашедский и другие.
Описание: По мотивам автобиографической повести Валерии «И жизнь, и слёзы, и любовь…»
Кулуары шоу-бизнеса, секреты, благодаря которым люди становятся богатыми и знаменитыми, и драматическая история двух десятилетий жизни знаменитой певицы. Это история жизни провинциальной девушки, достигшей фантастических вершин эстрадной карьеры. История сильной талантливой женщины, которой пришлось пройти семь кругов ада, но которая нашла в себе силы вернуться на сцену и стать счастливой. Действие картины разворачивается на сломе эпох. Свою эстрадную карьеру главная героиня начинает в конце восьмидесятых, еще в советское время, а ее становление как певицы происходит уже в девяностые, вместе со становлением молодого российского шоу-бизнеса. Непридуманная история певицы Валерии. Кулуары шоу-бизнеса, секреты, благодаря которым люди становятся богатыми и знаменитыми, и драматическая история двух десятилетий жизни знаменитой певицы - все это увидят зрители. Книга Валерии "И жизнь, и слезы, и любовь…" вышла рекордным для мемуаров тиражом – 200 000 экземпляров. Сегодня Валерия счастлива, но она не забывает о страшном прошлом, с которым у нее хватило сил порвать и из которого ее тогда вытащил будущий муж. Певица говорит: "Я написала эту книгу для того, чтобы подарить надежду тем, кому сейчас плохо". Это история жизни провинциальной девушки, достигшей фантастических вершин эстрадной карьеры. Частная жизнь певицы, отношения с первым мужем, мамой и продюсерами, тщательно скрываемая от посторонних глаз, будет представлена зрителю. Все основные события в сериале будут происходить с Аней Панфиловой. Валерия – ее прототип, но все же Аня - вымышленный персонаж, со своим характером и судьбой, во многом напоминающей судьбу известной певицы.
Сэмпл: http://multi-up.com/833297
Доп. информация: Релиз -

Рип чистый. Без посторонних надписей. Выкладывается как есть.
Качество: HDTV 1080i
Контейнер: TS
Видео кодек: AVC
Аудио кодек: AC3
Видео: 1920x1080 (16:9) 25.000 fps 7 655 Kbps, 0.148 bit/pixel
Аудио: MPEG Audio 48000Hz stereo 192 Кбит/сек

Скриншоты


MI

GeneralID : 1 (0x1)Complete name : G:\ВЫКЛАДКА\HDTV\Сериалы\Была любовь (2010, Биография, Мелодрама, HDTV) (MYDIMKA)\01 серия.tsFormat : MPEG-TSFile size : 2.62 GiBDuration : 44mn 29sOverall bit rate mode : VariableOverall bit rate : 8 447 Kbps
VideoID : 2911 (0xB5F)Menu ID : 1 (0x1)Format : AVCFormat/Info : Advanced Video CodecFormat profile : [email protected] settings, CABAC : YesFormat settings, ReFrames : 4 framesCodec ID : 27Duration : 44mn 29sBit rate : 7 835 KbpsWidth : 1 920 pixelsHeight : 1 080 pixelsDisplay aspect ratio : 16:9Frame rate : 25.000 fpsColor space : YUVChroma subsampling : 4:2:0Bit depth : 8 bitsScan type : MBAFFBits/(Pixel*Frame) : 0.151Stream size : 2.43 GiB (93%)
AudioID : 2912 (0xB60)Menu ID : 1 (0x1)Format : MPEG AudioFormat version : Version 1Format profile : Layer 2Mode : Joint stereoMode extension : Intensity Stereo + MS StereoCodec ID : 3Duration : 44mn 29sBit rate mode : ConstantBit rate : 192 KbpsChannel(s) : 2 channelsSampling rate : 48.0 KHzCompression mode : LossyStream size : 61.1 MiB (2%)Language : Russian

Внимание! Раздача ведётся путём добавления новых выпусков

Внимание! Раздача ведётся путём добавления новых выпусков; при каждом добавлении создётся новый торрент. Чтобы начать докачку нового выпуска, пользователям необходимо сделать следующее:
(1) остановить скачивание,
(2) удалить старый торрент у себя из клиента (старые выпуски удалять не надо),
(3) скачать новый торрент и запустить его у себя в клиенте вместо старого, при этом указать клиенту путь в старую папку куда и должно происходить скачивание новых выпусков.
Ваш клиент при этом должен произвести хеширование (проверку) старой папки (если не производит сам - помогите ему сделать это), и будет докачивать только те выпуски которых у вас ещё нет. Старые выпуски при этом не удаляются, а продолжают раздаваться!
Eсли вы уже удалили старые выпуски, то предотвратить повторную закачку старых выпусков можно, отжав галочку в соответсвующих местах при запуске нового торрента. По возможности, желательно не удалять старые выпуски как можно дольше чтобы релизёр не столько продолжал раздавать старые выпуски, а смог сконцентрироваться на новых.
Other forum [Profile] [PM]
Display posts from previous:    
Reply to topic

The time now is: Today 04:39

All times are GMT + 3 Hours



You cannot post new topics in this forum
You cannot reply to topics in this forum
You cannot edit your posts in this forum
You cannot delete your posts in this forum
You cannot vote in polls in this forum
You cannot attach files in this forum
You cannot download files in this forum