Today is a free download without charge Download

Красная пустыня / The Red Desert / Il deserto rosso (Микеланджело Антониони / Michelangelo Antonioni) [1964, Италия, Франция, драма, мелодрама, BDRip 1080p] 2xMVO (Film Prestige, Ст. "Пифагор" по заказу ГТРК "Культура") + Original

Reply to topic
 
Author
Message

Omen ®

Longevity: 8 years 5 months

Posts: 181087

Торрент-статистика

Post 20-Feb-2013 00:48

[Quote]

Красная пустыня / The Red Desert / Il deserto rosso- Год выпуска: 1964
Страна: Италия, Франция
Жанр: драма, мелодрама
Продолжительность: 01:57:19
Перевод 1: Профессиональный (многоголосый, закадровый) Film Prestige
Перевод 2: Профессиональный (многоголосый, закадровый) Ст. "Пифагор" по заказу ГТРК "Культура"
Оригинальная звуковая дорожка: Italian
Cубтитры: Russian (Film Prestige), English-Режиссер: Микеланджело Антониони / Michelangelo Antonioni
В ролях: Моника Витти, Ричард Харрис, Карло Кьонетти, Ксения Вальдери, Рита Ренуар, Лили Реймс, Альдо Гротти, Валерио Бартолески, Эмануэла Паола Карбони, Бруно Борги
Описание: Джулиана носит в себе страх, одиночество и тягу к любви. Опустошенная душа, как серый, унылый, индустриальный пейзаж... Джулиана движется смутно, невнятно, почти на ощупь, так же, как непроявленная любовь внутри нее... Движется вместе с солнцем за горизонт...-EA!
Релиз: by Vitaha94
Формат: MKV
Видео: 1920x1036 at 23.976 fps, [email protected], 2pass, ~19210 kbps avg
Аудио #1: Russian: 48 kHz, AC3, 1/0 (C) ch, ~192 kbps avg |Многоголосый закадровый, Film Prestige|
Аудио #2: Russian: 48 kHz, AC3, 1/0 (C) ch, ~128 kbps avg |Многоголосый закадровый, Ст. "Пифагор" по заказу ГТРК "Культура"|
Аудио #3: Italian: 48 kHz, AC3, 1/0 (C) ch, ~224 kbps avg
Аудио #4: English: 48 kHz, AC3, 1/0 (C) ch, ~192 kbps avg |Commentary by Italian film scholar David Forgacs|
Семпл-

Source~Encode





-

mInfo


Формат : Matroska
Версия формата : Version 2
Размер файла : 16,3 Гбайт
Продолжительность : 1 ч. 57 м.
Общий поток : 19,9 Мбит/сек
Название фильма : Michelangelo Antonioni-Il deserto rosso (1964)
Дата кодирования : UTC 2013-02-01 19:20:30
Программа кодирования : mkvmerge v5.8.0 ('No Sleep / Pillow') built on Sep 2 2012 15:37:04
Библиотека кодирования : libebml v1.2.3 + libmatroska v1.3.0
Видео
Идентификатор : 1
Формат : AVC
Формат/Информация : Advanced Video Codec
Профиль формата : [email protected]
Параметр CABAC формата : Да
Параметр ReFrames формата : 4 кадра
Идентификатор кодека : V_MPEG4/ISO/AVC
Продолжительность : 1 ч. 57 м.
Битрейт : 19,2 Мбит/сек
Ширина : 1916 пикселей
Высота : 1036 пикселей
Соотношение сторон : 16:9
Частота кадров : 23,976 кадра/сек
Цветовое пространство : YUV
Субдискретизация насыщенности : 4:2:0
Битовая глубина : 8 бит
Тип развёртки : Прогрессивная
Бит/(Пиксели*Кадры) : 0.404
Размер потока : 15,4 Гбайт (94%)
Библиотека кодирования : x264 core 129 r2230 1cffe9f
Настройки программы : cabac=1 / ref=4 / deblock=1:-3:-3 / analyse=0x3:0x113 / me=umh / subme=11 / psy=1 / psy_rd=1.15:0.05 / mixed_ref=1 / me_range=32 / chroma_me=1 / trellis=2 / 8x8dct=1 / cqm=0 / deadzone=21,11 / fast_pskip=0 / chroma_qp_offset=-3 / threads=12 / lookahead_threads=2 / sliced_threads=0 / nr=0 / decimate=0 / interlaced=0 / bluray_compat=0 / constrained_intra=0 / bframes=12 / b_pyramid=2 / b_adapt=2 / b_bias=0 / direct=3 / weightb=1 / open_gop=0 / weightp=2 / keyint=230 / keyint_min=23 / scenecut=40 / intra_refresh=0 / rc=2pass / mbtree=0 / bitrate=19210 / ratetol=1.0 / qcomp=0.75 / qpmin=8 / qpmax=69 / qpstep=4 / cplxblur=20.0 / qblur=0.5 / ip_ratio=1.30 / pb_ratio=1.20 / aq=1:0.65
Язык : Italian
Основные цвета : BT.709-5, BT.1361, IEC 61966-2-4, SMPTE RP177
Характеристики трансфера : BT.709-5, BT.1361
Коэффициенты матрицы : BT.709-5, BT.1361, IEC 61966-2-4 709, SMPTE RP177
Аудио #1
Идентификатор : 2
Формат : AC-3
Формат/Информация : Audio Coding 3
Расширение режима : CM (complete main)
Идентификатор кодека : A_AC3
Продолжительность : 1 ч. 57 м.
Вид битрейта : Постоянный
Битрейт : 192 Кбит/сек
Каналы : 1 канал
Расположение каналов : Front: C
Частота : 48,0 КГц
Битовая глубина : 16 бит
Метод сжатия : С потерями
Размер потока : 161 Мбайт (1%)
Заголовок : AC3 1.0 @ 192 kbps - Многоголосый закадровый, Film Prestige
Язык : Russian
Аудио #2
Идентификатор : 3
Формат : AC-3
Формат/Информация : Audio Coding 3
Расширение режима : CM (complete main)
Идентификатор кодека : A_AC3
Продолжительность : 1 ч. 57 м.
Вид битрейта : Постоянный
Битрейт : 128 Кбит/сек
Каналы : 1 канал
Расположение каналов : Front: C
Частота : 48,0 КГц
Битовая глубина : 16 бит
Метод сжатия : С потерями
Размер потока : 107 Мбайт (1%)
Заголовок : AC3 1.0 @ 128 kbps - Многоголосый закадровый, Ст. "Пифагор" по заказу ГТРК "Культура"
Язык : Russian
Аудио #3
Идентификатор : 4
Формат : AC-3
Формат/Информация : Audio Coding 3
Расширение режима : CM (complete main)
Идентификатор кодека : A_AC3
Продолжительность : 1 ч. 57 м.
Вид битрейта : Постоянный
Битрейт : 224 Кбит/сек
Каналы : 1 канал
Расположение каналов : Front: C
Частота : 48,0 КГц
Битовая глубина : 16 бит
Метод сжатия : С потерями
Размер потока : 188 Мбайт (1%)
Заголовок : AC3 1.0 @ 224 kbps
Язык : Italian
Аудио #4
Идентификатор : 5
Формат : AC-3
Формат/Информация : Audio Coding 3
Расширение режима : CM (complete main)
Идентификатор кодека : A_AC3
Продолжительность : 1 ч. 57 м.
Вид битрейта : Постоянный
Битрейт : 192 Кбит/сек
Каналы : 1 канал
Расположение каналов : Front: C
Частота : 48,0 КГц
Битовая глубина : 16 бит
Метод сжатия : С потерями
Размер потока : 161 Мбайт (1%)
Заголовок : Commentary
Язык : English
Текст #1
Идентификатор : 6
Формат : UTF-8
Идентификатор кодека : S_TEXT/UTF8
Идентификатор кодека/Информация : UTF-8 Plain Text
Язык : Russian
Текст #2
Идентификатор : 7
Формат : UTF-8
Идентификатор кодека : S_TEXT/UTF8
Идентификатор кодека/Информация : UTF-8 Plain Text
Язык : English
Меню #1
00:00:00.000 : en:00:00:00.000
00:08:45.692 : en:00:08:45.692
00:15:29.470 : en:00:15:29.470
00:19:48.687 : en:00:19:48.687
00:27:39.408 : en:00:27:39.408
00:34:41.705 : en:00:34:41.705
00:37:45.054 : en:00:37:45.054
00:43:00.912 : en:00:43:00.912
00:53:13.524 : en:00:53:13.524
01:04:43.004 : en:01:04:43.004
01:08:43.703 : en:01:08:43.703
01:11:41.422 : en:01:11:41.422
01:20:01.714 : en:01:20:01.714
01:24:24.977 : en:01:24:24.977
01:32:55.820 : en:01:32:55.820
01:46:35.639 : en:01:46:35.639
01:49:37.029 : en:01:49:37.029
01:55:15.408 : en:01:55:15.408
Меню #2
00:00:00.054 : en:00:00:00.054

-
Цитата:

*** Сохранены оригинальные чаптеры как на Blu-ray.
Other forum [Profile] [PM]
Similar theme
Forum Topic Author Torrent Replies Last Post
./templates/default/images/folder_dl.gif Развлекательные телепередачи и шоу, приколы и юмор Красная звезда. 20 лучших песен 2012 года [эфир от 01.01] (2013) HDTVRemux от Тorrent-Хzona Omen
0 | 1

0 | 1036

0

2013-01-28 04:33
Omen Latest
Display posts from previous:    
Reply to topic

The time now is: Today 12:30

All times are GMT + 3 Hours



You cannot post new topics in this forum
You cannot reply to topics in this forum
You cannot edit your posts in this forum
You cannot delete your posts in this forum
You cannot vote in polls in this forum
You cannot attach files in this forum
You cannot download files in this forum