Today is a free download without charge Download

Галлиполи / Gallipoli (Питер Уир / Peter Weir) [1981, Австралия, драма, приключения, военный, история., WEB-DL 720p] DVO + Sub Eng + Original Eng

Reply to topic
 
Author
Message

Omen ®

Longevity: 8 years 5 months

Posts: 181087

Торрент-статистика

Post 20-Feb-2013 00:48

[Quote]

Галлиполи / Gallipoli
Страна: Австралия
Студия: The Australian Film Commission, R & R Films
Жанр: драма, приключения, военный, история.
Год выпуска: 1981
Продолжительность: 01:51:31
Перевод: Профессиональный (двухголосый закадровый)
Cубтитры: английские, хорватские, сербские, словенские.
Оригинальная аудиодорожка: английский
Режиссер: Питер Уир / Peter Weir
В ролях: Марк Ли, Билл Керр, Харольд Хопкинс, Чарльз Латалу Юнипингу, Хит Харрис, Рон Грэхэм, Герда Николсон, Мэл Гибсон, Роберт Грубб, Тим МакКензи.
Описание: 1915 год. Два романтически настроенных молодых человека вступают в ряды австралийских вооруженных сил. После ускоренной подготовки в «учебке», затерянной в песках близ древнеегипетских пирамид, приятелей отправляют в полк, который ведет боевые действия против турецкой армии.
Друзья еще не знают, что им предстоит принять участие в битве при Галлиполи — одном из самых кровавых сражений первой мировой войны…
Доп. информация: Gallipoli.1981.720p.Web-DL.DD5.1-H.264-EucHD взял из сети.

Тип релиза: WEB-DL 720p
Контейнер: MKV
Видео: x264, 1280x544, 2.353:1, 23.976 fps, 3 860 kbit/s, Progressive, 0.231 Bits/(Pixel*Frame)
Аудио 1: AC-3, 48 KHz, 2 ch, 192 Kbps Русский - Профессиональный (двухголосый закадровый)
Аудио 2: AC-3, 48 KHz, 6 ch, 384 Kbps Английский - Original
Формат субтитров: softsub (SRT)

MediaInfo

General
Unique ID : 174677110075101911389030271527241953493 (0x83699672CDC370E98539127DBF64B0D5)
Complete name : Gallipoli_1981_WEB-DL_720p_.mkv
Format : Matroska
Format version : Version 4 / Version 2
File size : 3.53 GiB
Duration : 1h 51mn
Overall bit rate : 4 527 Kbps
Encoded date : UTC 2013-02-11 11:01:47
Writing application : mkvmerge v6.0.0 ('Coming Up For Air') built on Jan 20 2013 09:52:00
Writing library : libebml v1.3.0 + libmatroska v1.4.0
Video
ID : 1
Format : AVC
Format/Info : Advanced Video Codec
Format profile : [email protected]
Format settings, CABAC : No
Format settings, ReFrames : 2 frames
Format settings, GOP : N=1
Codec ID : V_MPEG4/ISO/AVC
Duration : 1h 51mn
Bit rate : 3 860 Kbps
Width : 1 280 pixels
Height : 544 pixels
Display aspect ratio : 2.35:1
Frame rate : 23.976 fps
Color space : YUV
Chroma subsampling : 4:2:0
Bit depth : 8 bits
Scan type : Progressive
Bits/(Pixel*Frame) : 0.231
Stream size : 3.01 GiB (85%)
Title : Gallipoli_1981_WEB-DL_720p_muxed _by_rjhlb777
Language : English
Default : Yes
Forced : No
Color primaries : BT.709-5, BT.1361, IEC 61966-2-4, SMPTE RP177
Transfer characteristics : BT.709-5, BT.1361
Matrix coefficients : BT.709-5, BT.1361, IEC 61966-2-4 709, SMPTE RP177
Audio #1
ID : 2
Format : AC-3
Format/Info : Audio Coding 3
Mode extension : CM (complete main)
Codec ID : A_AC3
Duration : 1h 51mn
Bit rate mode : Constant
Bit rate : 192 Kbps
Channel(s) : 2 channels
Channel positions : Front: L R
Sampling rate : 48.0 KHz
Bit depth : 16 bits
Compression mode : Lossy
Stream size : 153 MiB (4%)
Title : DVO
Language : Russian
Default : Yes
Forced : No
Audio #2
ID : 3
Format : AC-3
Format/Info : Audio Coding 3
Mode extension : CM (complete main)
Codec ID : A_AC3
Duration : 1h 51mn
Bit rate mode : Constant
Bit rate : 384 Kbps
Channel(s) : 6 channels
Channel positions : Front: L C R, Side: L R, LFE
Sampling rate : 48.0 KHz
Bit depth : 16 bits
Compression mode : Lossy
Stream size : 306 MiB (8%)
Title : Original_AC-3_5.1 ch
Language : English
Default : No
Forced : No
Text #1
ID : 4
Format : UTF-8
Codec ID : S_TEXT/UTF8
Codec ID/Info : UTF-8 Plain Text
Title : English
Language : English
Default : Yes
Forced : No
Text #2
ID : 5
Format : UTF-8
Codec ID : S_TEXT/UTF8
Codec ID/Info : UTF-8 Plain Text
Title : Croatian
Language : Croatian
Default : No
Forced : No
Text #3
ID : 6
Format : UTF-8
Codec ID : S_TEXT/UTF8
Codec ID/Info : UTF-8 Plain Text
Title : Serbian
Language : Serbian
Default : No
Forced : No
Text #4
ID : 7
Format : UTF-8
Codec ID : S_TEXT/UTF8
Codec ID/Info : UTF-8 Plain Text
Title : Slovenian
Language : Slovenian
Default : No
Forced : No
Menu
00:00:00.000 : en:As Fast As A Leopard
00:09:47.000 : en:The Distant War
00:17:37.000 : en:The Late Entry
00:22:48.000 : en:Not Coming Home
00:27:40.000 : en:Journey To Perth
00:40:48.000 : en:The Light Horse
00:50:09.000 : en:The Infantry
00:57:07.000 : en:Foreign Exchange
01:02:59.000 : en:Mates
01:15:27.000 : en:Front Lines
01:24:48.000 : en:A Blind Eye
01:31:42.000 : en:The Runner
01:34:47.000 : en:Push On
01:41:34.000 : en:The Final Race
01:48:09.000 : en:End Credits
Скорость раздачи маленькая 60-70 КБ/с, к сожалению.
__________________________________________________________________________________
Для наглядности.

Сравнение скриншотов

vik19662007
http://screenshotcomparison.com/comparison/7258
Other forum [Profile] [PM]
Display posts from previous:    
Reply to topic

The time now is: Today 10:32

All times are GMT + 3 Hours



You cannot post new topics in this forum
You cannot reply to topics in this forum
You cannot edit your posts in this forum
You cannot delete your posts in this forum
You cannot vote in polls in this forum
You cannot attach files in this forum
You cannot download files in this forum