Today is a free download without charge Download

Rummstein - Mutter [2001, Industrial metal, HDTV 720p]

Reply to topic
 
Author
Message

Omen ®

Longevity: 8 years 4 months

Posts: 181087

Торрент-статистика

Post 20-Feb-2013 00:48

[Quote]

Rummstein - Mutter
Жанр: Industrial metal
Продолжительность: 00:03:46
Год выпуска: 2001
Примечание: Данное видео - апскейл (видеодорожка взята у DVD-файла, звук - наложен с другого файла).
Качество: HDTV 720p
Контейнер: M2TS
Видео кодек: MPEG2
Аудио кодек: MP2
Видео: mpeg-ts; 1280x720; 7 200 kbit/s; 25 fps
Аудио: mp2; 384 kbit/s; 48 000 Hz; 2 ch

Отчёт MediaInfo / BDInfo

GeneralID : 1 (0x1)Complete name : D:\DL\Rummstein_-_Mutter.m2tFormat : MPEG-TSFile size : 215 MiBDuration : 3mn 46sOverall bit rate : 7 934 Kbps
VideoID : 4096 (0x1000)Menu ID : 1 (0x1)Format : MPEG VideoFormat version : Version 2Format profile : [email protected] settings, BVOP : YesFormat settings, Matrix : DefaultFormat settings, GOP : M=3, N=12Codec ID : 2Duration : 3mn 46sBit rate : 7 200 KbpsWidth : 1 280 pixelsHeight : 720 pixelsDisplay aspect ratio : 16:9Frame rate : 25.000 fpsColor space : YUVChroma subsampling : 4:2:0Bit depth : 8 bitsScan type : ProgressiveCompression mode : LossyBits/(Pixel*Frame) : 0.313Stream size : 193 MiB (90%)
AudioID : 4098 (0x1002)Menu ID : 1 (0x1)Format : MPEG AudioFormat version : Version 1Format profile : Layer 2Codec ID : 3Duration : 3mn 46sBit rate mode : ConstantBit rate : 384 KbpsChannel(s) : 2 channelsSampling rate : 48.0 KHzCompression mode : LossyStream size : 10.4 MiB (5%)

Скриншоты




Other forum [Profile] [PM]
Display posts from previous:    
Reply to topic

The time now is: Today 22:29

All times are GMT + 3 Hours



You cannot post new topics in this forum
You cannot reply to topics in this forum
You cannot edit your posts in this forum
You cannot delete your posts in this forum
You cannot vote in polls in this forum
You cannot attach files in this forum
You cannot download files in this forum