Сегодня идет свободное скачивание без начисления Download

Штепсель женит Тарапуньку (1957) [H.264] DVDRip

Ответить на тему
 
Автор
Сообщение

UndegraundMen ®

Стаж: 5 лет 7 месяцев

Сообщений: 25860

Торрент-статистика

Пост 19-Фев-2013 22:52

[Цитировать]

-Штепсель женит Тарапуньку (1957) [H.264] DVDRip- Русское название: Штепсель женит Тарапуньку
Год выпуска: 1957
Жанр: Комедия
Язык: Украинский+русский (один герой фильма говорит по украински другой - по русски)
Описание фильма:
Регулировщик Тарапунька познакомился с Галей еще во время войны. О своей любви к милой девушке с редкой и необычной фамилией - Суматоха - он поведал единственному другу Штепселю. Чрезмерная робость помешала Тарапуньке объясниться с Галей. Когда кончилась война, Галя приехала в Киев, чтобы принять участие в олимпиаде самодеятельности. Тарапунька вновь увидел любимую девушку, но случай опять помешал объясниться влюбленным. Приняв остроумных ребят за эстрадных артистов, жюри включает их выступление в первый концерт. Штепсель берется устроить женитьбу друга, но его попытка терпит неудачу, а концерт заканчивается провалом. Друзья начинают серьезно готовиться ко второй программе. Выступление проходит успешно и Тарапунька объясняется, наконец, Гале в любви.
Режиссер: Ефим Березин, Юрий Тимошенко
Актеры: Ефим Березин, Юрий Тимошенко, Таисия Литвиненко, Мария Мушкина, Владимир Дальский, Нонна Копержинская, Наталья Самсонова, Александр Хвыля, Виктор Халатов, Николай Яковченко, Николай Панасьев, Павел Шпрингфельд, Клавдия Хабарова, Софья Карамаш, Дмитрий Кап
Продолжительность: 01:14:44

Видеокодек: MPEG-4 AVC/H.264
Битрейт видео: ~2345 Кбит/сек
Размер кадра: 694x564
Качество видео: DVDRip
Аудиокодек: AC3 2.0
Битрейт аудио: 256 Кбит/сек

MediaInfo:

Общее
Уникальный идентификатор : 240470155429925192112629064226718089264 (0xB4E8DE07DB7F4B61AF9CD27547300030)
Полное имя : G:\!V\022013\Штепсель одружує Тарапуньку (1957) DVDRip\Штепсель женит Тарапуньку (1957) [H.264] DVDRip.mkv
Формат : Matroska
Версия формата : Version 2
Размер файла : 1,36 Гбайт
Продолжительность : 1 ч. 14 м.
Общий поток : 2603 Кбит/сек
Дата кодирования : UTC 2013-02-17 10:39:41
Программа кодирования : mkvmerge v5.8.0 ('No Sleep / Pillow') built on Sep 2 2012 15:37:04
Библиотека кодирования : libebml v1.2.3 + libmatroska v1.3.0
Видео
Идентификатор : 1
Формат : AVC
Формат/Информация : Advanced Video Codec
Профиль формата : [url=mailto:[email protected]][email protected][/url]
Параметр CABAC формата : Да
Параметр ReFrames формата : 6 кадров
Идентификатор кодека : V_MPEG4/ISO/AVC
Продолжительность : 1 ч. 14 м.
Битрейт : 2345 Кбит/сек
Ширина : 694 пикселя
Высота : 564 пикселя
Соотношение сторон : 4:3
Режим частоты кадров : Постоянный
Частота кадров : 25,000 кадров/сек
Цветовое пространство : YUV
Субдискретизация насыщенности : 4:2:0
Битовая глубина : 8 бит
Тип развёртки : Прогрессивная
Бит/(Пиксели*Кадры) : 0.240
Размер потока : 1,20 Гбайт (88%)
Библиотека кодирования : x264 core 129 r2230 1cffe9f
Настройки программы : cabac=1 / ref=6 / deblock=1:-1:-1 / analyse=0x3:0x113 / me=umh / subme=10 / psy=1 / psy_rd=1.00:0.15 / mixed_ref=1 / me_range=32 / chroma_me=1 / trellis=2 / 8x8dct=1 / cqm=0 / deadzone=21,11 / fast_pskip=1 / chroma_qp_offset=-3 / threads=6 / lookahead_threads=1 / sliced_threads=0 / nr=0 / decimate=1 / interlaced=0 / bluray_compat=0 / constrained_intra=0 / bframes=10 / b_pyramid=2 / b_adapt=2 / b_bias=0 / direct=1 / weightb=1 / open_gop=0 / weightp=2 / keyint=250 / keyint_min=25 / scenecut=40 / intra_refresh=0 / rc_lookahead=40 / rc=2pass / mbtree=1 / bitrate=2345 / ratetol=1.0 / qcomp=0.60 / qpmin=10 / qpmax=51 / qpstep=4 / cplxblur=20.0 / qblur=0.5 / ip_ratio=1.40 / aq=1:1.00
Default : Да
Forced : Нет
Аудио
Идентификатор : 2
Формат : AC-3
Формат/Информация : Audio Coding 3
Расширение режима : CM (complete main)
Параметр Endianness формата : Big
Идентификатор кодека : A_AC3
Продолжительность : 1 ч. 14 м.
Вид битрейта : Постоянный
Битрейт : 256 Кбит/сек
Каналы : 2 канала
Расположение каналов : Front: L R
Частота : 48,0 КГц
Битовая глубина : 16 бит
Метод сжатия : С потерями
Размер потока : 137 Мбайт (10%)
Default : Да
Forced : Нет
Скриншоты:
           
Вне форума [Профиль] [ЛС]
Показать сообщения:    
Ответить на тему

Текущее время: Сегодня 15:13

Часовой пояс: GMT + 3



Вы не можете начинать темы
Вы не можете отвечать на сообщения
Вы не можете редактировать свои сообщения
Вы не можете удалять свои сообщения
Вы не можете голосовать в опросах
Вы не можете прикреплять файлы к сообщениям
Вы не можете скачивать файлы