Today is a free download without charge Download

Дагон / Dagon (Стюарт Гордон / Stuart Gordon) [2001, Испания, ужасы, фэнтези, триллер, детектив, BDRip 720p] DVO (R5) + AVO (Сербин) + Original + sub (Rus, Eng)

Reply to topic
 
Author
Message

Omen ®

Longevity: 8 years 5 months

Posts: 181087

Торрент-статистика

Post 19-Feb-2013 16:32

[Quote]

Дагон / Dagon- Год выпуска: 2001
Страна: Испания, Castelao Producciones, Estudios Picasso, Fantastic Factory (Filmax)
Жанр: ужасы, фэнтези, триллер, детектив
Продолжительность: 01:37:57
Перевод 1: Профессиональный (двухголосый, закадровый) R5
Перевод 2: Авторский одноголосый Ю.Сербин
Оригинальная звуковая дорожка: English
Cубтитры: Russian, English-Режиссер: Стюарт Гордон / Stuart Gordon
В ролях: Эзра Годден, Франсиско Рабаль, Ракель Мероньо, Макарена Гомес, Брендан Прайс, Биргит Бофарулл, Уксия Бланко, Ферран Лаоз, Хоан Мингуэлл, Альфредо Вилья
Описание: Выброшенные на берег небольшого острова ужасным штормом Пауль и Барбара нашли прибежище в заброшенной рыбацкой деревушке. Когда Барбара неожиданно исчезает среди уродливых и отталкивающих местных жителей, Паулю приходится столкнуться с пугающей действительностью одинокого городка. Пауль решается на жуткое расследование исчезновения Барбары в одиночку среди полного бездействия страшных обитателей деревушки. Но то, что обнаруживает Пауль в результате поисков вселяет страх и ужас и грозит опасностью всему миру.-Релиз: by Trottor
Формат: MKV
Видео: 1280x720 at 23.976 fps, MPEG-4 AVC, [email protected], 2pass, ~ 6119 kbps avg
Аудио #1: Russian :48 kHz, AC3, 3/2 (L,C,R,l,r) + LFE ch, ~640 kbps avg |Двухголосый закадровый, R5|
Аудио #2: Russian :48 kHz, AC3, 3/2 (L,C,R,l,r) + LFE ch, ~640 kbps avg |Одноголосый закадровый, Ю.Сербин|
Аудио #3: English :48 kHz, AC3, 3/2 (L,C,R,l,r) + LFE ch, ~640 kbps avg
Семпл- -

Log

x264 [info]: frame I:868 Avg QP:15.47 size: 92060
x264 [info]: frame P:32751 Avg QP:17.62 size: 53806
x264 [info]: frame B:107278 Avg QP:19.45 size: 24714

-

mInfo


Format : Matroska
Format version : Version 2
File size : 5.50 GiB
Duration : 1h 37mn
Overall bit rate : 8 039 Kbps
Movie name : Dagon (2001)
Encoded date : UTC 2013-02-09 09:13:12
Writing application : mkvmerge v5.8.0 ('No Sleep / Pillow') built on Sep 2 2012 15:37:04
Writing library : libebml v1.2.3 + libmatroska v1.3.0
Video
ID : 1
Format : AVC
Format/Info : Advanced Video Codec
Format profile : [email protected]
Format settings, CABAC : Yes
Format settings, ReFrames : 8 frames
Codec ID : V_MPEG4/ISO/AVC
Duration : 1h 37mn
Bit rate : 6 119 Kbps
Width : 1 280 pixels
Height : 720 pixels
Display aspect ratio : 16:9
Frame rate mode : Constant
Frame rate : 23.976 fps
Color space : YUV
Chroma subsampling : 4:2:0
Bit depth : 8 bits
Scan type : Progressive
Bits/(Pixel*Frame) : 0.277
Stream size : 4.08 GiB (74%)
Title : Dagon (2001)
Writing library : x264 core 129 r2230 1cffe9f
Encoding settings : cabac=1 / ref=8 / deblock=1:-1:-1 / analyse=0x3:0x113 / me=umh / subme=10 / psy=1 / psy_rd=1.00:0.20 / mixed_ref=1 / me_range=32 / chroma_me=1 / trellis=2 / 8x8dct=1 / cqm=0 / deadzone=21,11 / fast_pskip=0 / chroma_qp_offset=-3 / threads=12 / lookahead_threads=2 / sliced_threads=0 / nr=0 / decimate=0 / interlaced=0 / bluray_compat=0 / constrained_intra=0 / bframes=6 / b_pyramid=2 / b_adapt=2 / b_bias=0 / direct=3 / weightb=1 / open_gop=0 / weightp=2 / keyint=240 / keyint_min=23 / scenecut=40 / intra_refresh=0 / rc_lookahead=40 / rc=2pass / mbtree=0 / bitrate=6119 / ratetol=1.0 / qcomp=0.60 / qpmin=0 / qpmax=69 / qpstep=4 / cplxblur=20.0 / qblur=0.5 / vbv_maxrate=50000 / vbv_bufsize=62500 / nal_hrd=none / ip_ratio=1.40 / pb_ratio=1.30 / aq=1:1.00
Language : English
Default : Yes
Forced : No
Audio #1
ID : 2
Format : AC-3
Format/Info : Audio Coding 3
Mode extension : CM (complete main)
Format settings, Endianness : Big
Codec ID : A_AC3
Duration : 1h 37mn
Bit rate mode : Constant
Bit rate : 640 Kbps
Channel(s) : 6 channels
Channel positions : Front: L C R, Side: L R, LFE
Sampling rate : 48.0 KHz
Bit depth : 16 bits
Compression mode : Lossy
Stream size : 448 MiB (8%)
Title : AC3 6 ch 640 kbps DVO
Language : Russian
Default : Yes
Forced : No
Audio #2
ID : 3
Format : AC-3
Format/Info : Audio Coding 3
Mode extension : CM (complete main)
Format settings, Endianness : Big
Codec ID : A_AC3
Duration : 1h 37mn
Bit rate mode : Constant
Bit rate : 640 Kbps
Channel(s) : 6 channels
Channel positions : Front: L C R, Side: L R, LFE
Sampling rate : 48.0 KHz
Bit depth : 16 bits
Compression mode : Lossy
Stream size : 448 MiB (8%)
Title : AC3 6 ch 640 kbps Serbin
Language : Russian
Default : No
Forced : No
Audio #3
ID : 4
Format : AC-3
Format/Info : Audio Coding 3
Mode extension : CM (complete main)
Format settings, Endianness : Big
Codec ID : A_AC3
Duration : 1h 37mn
Bit rate mode : Constant
Bit rate : 640 Kbps
Channel(s) : 6 channels
Channel positions : Front: L C R, Side: L R, LFE
Sampling rate : 48.0 KHz
Bit depth : 16 bits
Compression mode : Lossy
Stream size : 448 MiB (8%)
Title : AC3 6 ch 640 kbps Original
Language : English
Default : No
Forced : No
Text #1
ID : 5
Format : UTF-8
Codec ID : S_TEXT/UTF8
Codec ID/Info : UTF-8 Plain Text
Title : Russian
Language : Russian
Default : No
Forced : No
Text #2
ID : 6
Format : UTF-8
Codec ID : S_TEXT/UTF8
Codec ID/Info : UTF-8 Plain Text
Title : English
Language : English
Default : No
Forced : No
Menu
00:00:00.000 : en:Chapter 1
00:09:46.210 : en:Chapter 2
00:16:28.445 : en:Chapter 3
00:27:45.371 : en:Chapter 4
00:39:00.420 : en:Chapter 5
00:53:19.195 : en:Chapter 6
01:09:38.881 : en:Chapter 7
01:21:09.698 : en:Chapter 8

-
Цитата:

*** За исходник спасибо Прагматик
*** Сохранены оригинальные чаптеры как на Blu-ray.
*** Дороги №1 и 2 получены наложением чистых/выделенных голосов на центр декодированноно оригинально DTS-HD MA.
Other forum [Profile] [PM]
Display posts from previous:    
Reply to topic

The time now is: Today 23:17

All times are GMT + 3 Hours



You cannot post new topics in this forum
You cannot reply to topics in this forum
You cannot edit your posts in this forum
You cannot delete your posts in this forum
You cannot vote in polls in this forum
You cannot attach files in this forum
You cannot download files in this forum