Today is a free download without charge Download

Rammstein - Du hast [1997, Industrial metal, HDTV 720p]

Reply to topic
 
Author
Message

Omen ®

Longevity: 8 years 3 months

Posts: 181087

Торрент-статистика

Post 19-Feb-2013 16:32

[Quote]

Rammstein - Du hast
Жанр: Industrial metal
Продолжительность: 00:03:54
Год выпуска: 1997
Описание:
Доп. информация: Авторы песни использовали игру слов. Немецкое «Du hasst» — «Ты ненавидишь» — созвучно названию песни. В тексте песни слово «hast» имеет ещё третье значение: вспомогательный глагол «haben» в немецком языке служит для образования прошедшего времени. Таким образом, «Du hast mich gefragt, und ich hab nichts gesagt» переводится как «Ты меня спросил(а), а я ничего не ответил». Также следует заметить, что в англоязычной версии песни поется «You Hate», что означает «Ты ненавидишь».
(Примечание: пропускная способность канала релизера ~750 kbit/s, поэтому оставайтесь на раздаче как можно дольше)
Качество: HDTV 720p
Контейнер: MP4
Видео кодек: H.264
Аудио кодек: AAC
Видео: h.264; 1280x544; 5 200 kbit/s; 25 fps
Аудио: AAC; 384 kbit/s; 48 000 Hz; 2 ch

Отчёт MediaInfo / BDInfo

GeneralComplete name : D:\Rammstein - Du hast.mp4Format : MPEG-4Format profile : Base Media / Version 2Codec ID : mp42File size : 144 MiBDuration : 3mn 54sOverall bit rate mode : VariableOverall bit rate : 5 164 KbpsEncoded date : UTC 2013-02-19 12:33:18Tagged date : UTC 2013-02-19 12:33:18
VideoID : 2Format : AVCFormat/Info : Advanced Video CodecFormat profile : [email protected] settings, CABAC : YesFormat settings, ReFrames : 2 framesFormat settings, GOP : M=2, N=13Muxing mode : Container [email protected] ID : avc1Codec ID/Info : Advanced Video CodingDuration : 3mn 54sBit rate mode : VariableBit rate : 4 775 KbpsMaximum bit rate : 5 200 KbpsWidth : 1 280 pixelsHeight : 544 pixelsDisplay aspect ratio : 2.35:1Frame rate mode : ConstantFrame rate : 25.000 fpsColor space : YUVChroma subsampling : 4:2:0Bit depth : 8 bitsScan type : ProgressiveBits/(Pixel*Frame) : 0.274Stream size : 133 MiB (92%)Language : EnglishEncoded date : UTC 2013-02-19 12:33:18Tagged date : UTC 2013-02-19 12:33:18
AudioID : 1Format : AACFormat/Info : Advanced Audio CodecFormat profile : LCCodec ID : 40Duration : 3mn 54sBit rate mode : ConstantBit rate : 384 KbpsChannel(s) : 2 channelsChannel positions : Front: L RSampling rate : 48.0 KHzCompression mode : LossyStream size : 10.7 MiB (7%)Language : EnglishEncoded date : UTC 2013-02-19 12:33:18Tagged date : UTC 2013-02-19 12:33:18

Скриншоты

Other forum [Profile] [PM]
Display posts from previous:    
Reply to topic

The time now is: Today 10:49

All times are GMT + 3 Hours



You cannot post new topics in this forum
You cannot reply to topics in this forum
You cannot edit your posts in this forum
You cannot delete your posts in this forum
You cannot vote in polls in this forum
You cannot attach files in this forum
You cannot download files in this forum