Today is a free download without charge Download

Джентльмены, удачи! (Александр Баранов, Дмитрий Киселёв) [2012.., Россия / Базелевс Продакшн, Фонд кино, Канал Россия, DVD9]

Reply to topic
 
Author
Message

Meshanik ®

Gender:

Longevity: 9 years 4 months

Posts: 3866

Location: Los Angeles

Торрент-статистика

Post 19-Feb-2013 15:35

[Quote]

Джентльмены, удачи!
«Шли на дело - попали на ёлку»
- Русское название: Джентльмены, удачи!
Год выпуска: 2012
Производство: Россия, Базелевс Продакшн
Жанр: Комедия, криминал
Продолжительность: 01:35:55
Перевод: Не требуется (русский)
Субтитры: Отсутствуют-Дата мировой премьеры: 27 декабря 2012
Дата российской премьеры: 27 декабря 2012
Дата выхода DVD релиза: 5 февраля 2013-Режиссер: Александр Баранов, Дмитрий Киселёв
Продюсер: Тимур Бекмамбетов, Ива Стромилова, Александра Ремизова
В ролях: Сергей Безруков, Гоша Куценко, Антон Богданов, Марина Петренко, Дато Бахтадзе, Кирилл Жандаров, Валентин Смирнитский, Толепберген Байсакалов-Описание фильма:
Молодой аниматор детского центра Леша Трешкин — инфантильный и жизнерадостный «хипстер» — оказывается двойником опаснейшего вора и убийцы Смайлика (так его прозвали за привычку улыбаться перед тем, как убить). Смайлик похищает из музея Санкт-Петербурга национальный символ Казахстана — Доспех Золотого Воина. Молодая красивая лейтенант полиции Ирина Славина ловит Трешкина, и «современными» полицейскими методами заставляет его помочь следствию. Выбора нет, иначе Трешкин сядет как настоящий преступник.- -Качество видео: DVD9
Видеокодек: MPEG-2
Битрейт видео: ~9000 Кбит/сек
Размер кадра: [email protected]
Аудио: AC3, 6 ch, 448 Кбит/с - русский

Дополнительно

Отсутствует

MediaInfo

Общее
Полное имя : G:\Dzhentlmeny,udachi!.2012.DVD9\VIDEO_TS\VTS_01_1.VOB
Формат : MPEG-PS
Размер файла : 1024 Мбайт
Продолжительность : 14 м.
Общий поток : 9980 Кбит/сек
Видео
Идентификатор : 224 (0xE0)
Формат : MPEG Video
Версия формата : Version 2
Профиль формата : [email protected]
Параметр BVOP формата : Да
Параметр матрицы формата : По умолчанию
Продолжительность : 14 м.
Вид битрейта : Постоянный
Битрейт : 9000 Кбит/сек
Ширина : 720 пикс.
Высота : 576 пикс.
Соотношение сторон : 16:9
Частота кадров : 25,000 кадр/сек
Стандарт вещания : PAL
Цветовое пространство : YUV
Подвыборка цветности : 4:2:0
Битовая глубина : 8 бит
Тип развёртки : Чересстрочная
Порядок развёртки : Верхнее поле первое
Метод сжатия : С потерями
Бит/(Пиксели*Кадры) : 0.868
Размер потока : 958 Мбайт (94%)
Аудио
Идентификатор : 189 (0xBD)-128 (0x80)
Формат : AC-3
Формат/Информация : Audio Coding 3
Расширение режима : CM (complete main)
Режим смешивания : DVD-Video
Продолжительность : 14 м.
Вид битрейта : Постоянный
Битрейт : 448 Кбит/сек
Канал(ы) : 6 канала(ов)
Расположение каналов : Front: L C R, Side: L R, LFE
Частота : 48,0 КГц
Битовая глубина : 16 бит
Метод сжатия : С потерями
Размер потока : 46,0 Мбайт (4%)
Меню

DVDInfo

Title:
Size: 6.92 Gb ( 7 258 528 KBytes ) - DVD-9
Enabled regions: 1, 2, 3, 4, 5, 6, 7, 8
VTS_01 :
Play Length: 01:35:55
Video: PAL 16:9 (720x576) VBR, Auto Pan&Scan
Audio:
Russian (Dolby AC3, 6 ch)

Меню DVD

     
Скриншоты:
         
Other forum [Profile] [PM]
Display posts from previous:    
Reply to topic

The time now is: Today 18:02

All times are GMT + 3 Hours



You cannot post new topics in this forum
You cannot reply to topics in this forum
You cannot edit your posts in this forum
You cannot delete your posts in this forum
You cannot vote in polls in this forum
You cannot attach files in this forum
You cannot download files in this forum