Today is a free download without charge Download

Джентльмены, удачи! (Александр Баранов, Дмитрий Киселёв) [2012.., Россия / Базелевс Продакшн, Фонд кино, Канал Россия, DVD5]

Reply to topic
 
Author
Message

Meshanik ®

Gender:

Longevity: 9 years 3 months

Posts: 3866

Location: Los Angeles

Торрент-статистика

Post 19-Feb-2013 15:05

[Quote]

Джентльмены, удачи!- Русское название: Джентльмены, удачи!
Год выпуска: 2012
Производство: Россия, Базелевс Продакшн
Жанр: Комедия, Криминал
Продолжительность: 01:35:55
Перевод: Не требуется (русский)
Субтитры: Отсутствуют-Дата мировой премьеры: 27 декабря 2012
Дата российской премьеры: 27 декабря 2012
Дата выхода DVD релиза: 5 февраля 2013-Режиссер: Александр Баранов, Дмитрий Киселёв
Продюсер: Тимур Бекмамбетов, Ива Стромилова, Александра Ремизова, ...
В ролях: Сергей Безруков, Гоша Куценко, Антон Богданов, Марина Петренко, Дато Бахтадзе, Кирилл Жандаров, Валентин Смирнитский, Толепберген Байсакалов, Ольга Медынич, Иван Ивашкин ...-Описание фильма:
Молодой аниматор детского центра Леша Трешкин — инфантильный и жизнерадостный «хипстер» — оказывается двойником опаснейшего вора и убийцы Смайлика (так его прозвали за привычку улыбаться перед тем, как убить). Смайлик похищает из музея Санкт-Петербурга национальный символ Казахстана — Доспех Золотого Воина. Молодая красивая лейтенант полиции Ирина Славина ловит Трешкина, и «современными» полицейскими методами заставляет его помочь следствию. Выбора нет, иначе Трешкин сядет как настоящий преступник.

Качество видео: DVD5
Видео: MPEG-2, PAL 16:9 ([email protected]) 5 872 Kbps
Аудио: Русский (Dolby AC3, 6 ch) 448 Kbps

Исходник

Джентльмены, удачи! (Александр Баранов, Дмитрий Киселёв) [2012.., Россия / Базелевс Продакшн, Фонд кино, Канал Россия, DVD9]

Доп. информация

Обработано в DVDRemake Pro.
Видео сжималось 38.1%.
Сжималось связкой DVD Rebuilder + CCE/Procoder в 5 проходов.
Удалёно: заставки и предупреждение.

Лог кодирования

-----------------
[18:57:26] Phase I, PREPARATION started.
- DVD-RB v1.28.2
- AVISYNTH 2.5.8.0
- CCE 1.0.1.9 encoder selected.
- Source: DZHENTLMENY,UDACHI!.2012.DVD5
- VTS_01: 3 506 107 sectors.
-- Scanning and writing .D2V & .AVS files
-- Processed 143 896 frames.
-- Building .AVS and .ECL files
- Reduction Level for DVD-5: 61,9%
- Overall Bitrate : 5 874Kbs
- Space for Video : 4 127 418KB
- HIGH/LOW/TYPICAL Bitrates: 5 875/5 848/5 874 Kbs
[18:59:25] Phase I, PREPARATION completed in 2 minutes.
- WARNING: Viewer/Editor settings are over target.
[18:59:42] Phase II ENCODING started
- Creating M2V for VTS_01 segment 0
- Creating M2V for VTS_01 segment 1
- Creating M2V for VTS_01 segment 2
- Creating M2V for VTS_01 segment 3
- Creating M2V for VTS_01 segment 4
- Creating M2V for VTS_01 segment 5
- Creating M2V for VTS_01 segment 6
- Creating M2V for VTS_01 segment 7
- Creating M2V for VTS_01 segment 8
[19:58:30] Phase II ENCODING completed in 59 minutes.
[19:58:36] Phase III, REBUILD started.
- Copying IFO, BUP, and unaltered files...
- Processing VTS_01
- Reading/processing TMAP table...
- Rebuilding seg 0 VOBID 1 CELLID 1
- Rebuilding seg 1 VOBID 1 CELLID 2
- Rebuilding seg 2 VOBID 1 CELLID 3
- Rebuilding seg 3 VOBID 1 CELLID 4
- Rebuilding seg 4 VOBID 1 CELLID 5
- Rebuilding seg 5 VOBID 1 CELLID 6
- Rebuilding seg 6 VOBID 1 CELLID 7
- Rebuilding seg 7 VOBID 1 CELLID 8
- Rebuilding seg 8 VOBID 1 CELLID 9
- Updating NAVPACKS for VOBID_01
- Updated VTS_C_ADT.
- Updated VTS_VOBU_ADMAP.
- Updated IFO: VTS_01_0.IFO
- Updating TMAP table...
- Correcting VTS Sectors...
[20:10:12] Phase III, REBUILD completed in 12 minutes.
Done.

MediaInfo

General
Complete name : D:\_Video\Dzhentlmeny,udachi!.2012.DVD5\VIDEO_TS\VTS_01_1.VOB
Format : MPEG-PS
File size : 1 024 MiB
Duration : 22mn 12s
Overall bit rate : 6 449 Kbps
Video
ID : 224 (0xE0)
Format : MPEG Video
Format version : Version 2
Format profile : [email protected]
Format settings, BVOP : Yes
Format settings, Matrix : Custom
Duration : 22mn 12s
Bit rate mode : Variable
Bit rate : 5 872 Kbps
Maximum bit rate : 9 000 Kbps
Width : 720 pixels
Height : 576 pixels
Display aspect ratio : 16:9
Frame rate : 25.000 fps
Standard : PAL
Color space : YUV
Chroma subsampling : 4:2:0
Bit depth : 8 bits
Scan type : Interlaced
Scan order : Top Field First
Compression mode : Lossy
Bits/(Pixel*Frame) : 0.566
Stream size : 932 MiB (91%)
Audio
ID : 189 (0xBD)-128 (0x80)
Format : AC-3
Format/Info : Audio Coding 3
Mode extension : CM (complete main)
Muxing mode : DVD-Video
Duration : 22mn 11s
Bit rate mode : Constant
Bit rate : 448 Kbps
Channel(s) : 6 channels
Channel positions : Front: L C R, Side: L R, LFE
Sampling rate : 48.0 KHz
Bit depth : 16 bits
Compression mode : Lossy
Stream size : 71.1 MiB (7%)
Menu

DVDInfo

Title: Bob
Size: 4.37 Gb ( 4 583 204 KBytes ) - DVD-5
Enabled regions: 1, 2, 3, 4, 5, 6, 7, 8
VTS_01 :
Play Length: 01:35:55
Video: PAL 16:9 (720x576) VBR, Auto Pan&Scan
Audio:
Russian (Dolby AC3, 6 ch)
Menu Video:
PAL 16:9 (720x576) VBR
Auto Pan&Scan
Menu Audio:
Not specified (Dolby AC3, 2 ch)
Menu Subtitles:
Not specified
Menu Russian Language Unit :
Root Menu

Cкриншот финального проекта

 

Скриншоты меню

   
Скриншоты:
       
       
Other forum [Profile] [PM]
Display posts from previous:    
Reply to topic

The time now is: Today 14:06

All times are GMT + 3 Hours



You cannot post new topics in this forum
You cannot reply to topics in this forum
You cannot edit your posts in this forum
You cannot delete your posts in this forum
You cannot vote in polls in this forum
You cannot attach files in this forum
You cannot download files in this forum