Today is a free download without charge Download

Джентльмены, удачи! (Александр Баранов, Дмитрий Киселёв) [2012.., Россия / Базелевс Продакшн, Фонд кино, Канал Россия, 720p, BDRip]

Reply to topic
 
Author
Message

Meshanik ®

Gender:

Longevity: 9 years 3 months

Posts: 3866

Location: Los Angeles

Торрент-статистика

Post 19-Feb-2013 14:17

[Quote]

Джентльмены, удачи!- Русское название: Джентльмены, удачи!
Год выпуска: 2012
Производство: Россия
Жанр: Комедия, Криминал
Продолжительность: 01:39:55
Перевод: Не требуется (Русский)
Субтитры: Отсутствуют-Режиссер: Александр Баранов, Дмитрий Киселёв
Продюсер: Тимур Бекмамбетов, Ива Стромилова, Александра Ремизова, ...
В ролях: Сергей Безруков, Гоша Куценко, Антон Богданов, Марина Петренко, Дато Бахтадзе, Кирилл Жандаров, Валентин Смирнитский, Толепберген Байсакалов, Ольга Медынич, Иван Ивашкин ...-Описание фильма:
Молодой аниматор детского центра Леша Трешкин — инфантильный и жизнерадостный «хипстер» — оказывается двойником опаснейшего вора и убийцы Смайлика (так его прозвали за привычку улыбаться перед тем, как убить). Смайлик похищает из музея Санкт-Петербурга национальный символ Казахстана — Доспех Золотого Воина. Молодая красивая лейтенант полиции Ирина Славина ловит Трешкина, и «современными» полицейскими методами заставляет его помочь следствию. Выбора нет, иначе Трешкин сядет как настоящий преступник...- -Дата мировой премьеры: 27 декабря 2012
Дата российской премьеры: 27 декабря 2012, «Bazelevs Distribution»
Дата выхода DVD релиза: 5 февраля 2013, «Флагман-Трейд»-Качество видео: BDRip [720p]
Видеокодек: MPEG-4 AVC/H.264
Видео: 1280x546, ~5351 Кбит/с
Аудио: Русский AC3, 6 ch, 640 Кбит/с (Оригинал)-

MediaInfo:

Общее
Уникальный идентификатор : 222574559621237287392785907023302268331 (0xA7724D094FC7705399C60CBD91EA95AB)
Полное имя : Dzhentlmeny.udachi.2012.BDRip.720p.mkv
Формат : Matroska
Версия формата : Version 2
Размер файла : 4,27 Гбайт
Продолжительность : 1 ч. 39 м.
Общий поток : 6113 Кбит/сек
Название фильма : IRONCLUB
Дата кодирования : UTC 2013-02-13 05:07:44
Программа кодирования : mkvmerge v5.2.0 ('I can't explain') built on Dec 18 2011 18:12:03
Библиотека кодирования : libebml v1.2.3 + libmatroska v1.3.0
Видео
Идентификатор : 1
Формат : AVC
Формат/Информация : Advanced Video Codec
Профиль формата : [url=mailto:[email protected]][email protected][/url]
Параметр CABAC формата : Да
Параметр ReFrames формата : 11 кадров
Идентификатор кодека : V_MPEG4/ISO/AVC
Продолжительность : 1 ч. 39 м.
Битрейт : 5351 Кбит/сек
Ширина : 1280 пикселей
Высота : 546 пикселей
Соотношение сторон : 2,35:1
Частота кадров : 24,000 кадра/сек
Цветовое пространство : YUV
Субдискретизация насыщенности : 4:2:0
Битовая глубина : 8 бит
Тип развёртки : Прогрессивная
Бит/(Пиксели*Кадры) : 0.319
Размер потока : 3,73 Гбайт (88%)
Заголовок : Dzhentlmeny udachi 2012 BluRay DD5.1 x264-IRONCLUB
Библиотека кодирования : x264 core 129 r2245kMod bc13772
Настройки программы : cabac=1 / ref=11 / deblock=1:-3:-3 / analyse=0x3:0x113 / me=umh / subme=11 / psy=1 / fade_compensate=0.00 / psy_rd=1.10:0.00 / mixed_ref=1 / me_range=16 / chroma_me=1 / trellis=2 / 8x8dct=1 / cqm=0 / deadzone=21,11 / fast_pskip=0 / chroma_qp_offset=-2 / threads=12 / lookahead_threads=2 / sliced_threads=0 / nr=0 / decimate=1 / interlaced=0 / bluray_compat=0 / constrained_intra=0 / bframes=8 / b_pyramid=2 / b_adapt=2 / b_bias=0 / direct=3 / weightb=1 / open_gop=0 / weightp=2 / keyint=250 / keyint_min=24 / scenecut=40 / intra_refresh=0 / rc_lookahead=60 / rc=crf / mbtree=0 / crf=16.5000 / qcomp=0.70 / qpmin=0 / qpmax=69 / qpstep=4 / vbv_maxrate=50000 / vbv_bufsize=62500 / crf_max=0.0 / nal_hrd=none / ip_ratio=1.30 / pb_ratio=1.20 / aq=1:0.90
Язык : Russian
Default : Да
Forced : Да
Аудио
Идентификатор : 2
Формат : AC-3
Формат/Информация : Audio Coding 3
Расширение режима : CM (complete main)
Идентификатор кодека : A_AC3
Продолжительность : 1 ч. 39 м.
Вид битрейта : Постоянный
Битрейт : 640 Кбит/сек
Каналы : 6 каналов
Расположение каналов : Front: L C R, Side: L R, LFE
Частота : 48,0 КГц
Битовая глубина : 16 бит
Метод сжатия : С потерями
Размер потока : 457 Мбайт (10%)
Заголовок : DD 5.1 @ 640 kbps
Язык : Russian
Default : Да
Forced : Да
Меню
00:00:00.000 : ru:Chapter 01
00:08:28.666 : ru:Chapter 02
00:17:54.833 : ru:Chapter 03
00:28:20.500 : ru:Chapter 04
00:36:55.958 : ru:Chapter 05
00:47:02.291 : ru:Chapter 06
00:57:51.041 : ru:Chapter 07
01:07:21.166 : ru:Chapter 08
01:15:36.750 : ru:Chapter 09
01:25:50.250 : ru:Chapter 10
01:35:53.666 : ru:Chapter 11

Скриншоты:

       
       
Other forum [Profile] [PM]

Козенак

Longevity: 8 years 7 months

Posts: 5

Торрент-статистика

Post 19-Feb-2013 18:04 (after 3 hours)

[Quote]

Хороший фильм
Other forum [Profile] [PM]
Display posts from previous:    
Reply to topic

The time now is: Today 22:44

All times are GMT + 3 Hours



You cannot post new topics in this forum
You cannot reply to topics in this forum
You cannot edit your posts in this forum
You cannot delete your posts in this forum
You cannot vote in polls in this forum
You cannot attach files in this forum
You cannot download files in this forum