Today is a free download without charge Download

Даосский маг Чон У Чхи / Woochi (Jeon Woo Chi: The Taoist Wizard) (Дон-хун Чой) [2009 г., боевик, комедия, приключения, история, BDRip720p]

Reply to topic
 
Author
Message

Delia ®

Gender:

Longevity: 9 years 6 months

Posts: 1821

Торрент-статистика

Post 28-May-2011 11:13

[Quote]

Даосский маг Чон У ЧхиWoochi (Jeon Woo Chi: The Taoist Wizard) Год выпуска: 2009
Страна: Корея Южная
Жанр: боевик, комедия, приключения, история
Продолжительность: 02:15:22
Перевод: Любительский (одноголосый Bigus)
Режиссер: Дон-хун Чой
Сценарий: Дон-хун Чой
Премьера в мире: 23 декабря 2009
В ролях: Су-юн Лим, Юнь-cок Ким, Дон-вон Кан, Су Сео, Жи Мин, Ву Сон, Мин-гуо Парк, Йонг-гу Юн
Описание: Примерно 500 лет назад в государстве Чосон произошло из ряда вон выходящее событие. Волшебная флейта, одно из величайших сокровищ страны, была похищена и оказалась в руках у злого чудовища. Небожители не могли остаться в стороне: они помогли побороть монстра и, чтобы защитить чудесный музыкальный инструмент от подобных посягательств в будущем, разделили его на две части и поручили их на хранение конфуцианскому учёному Хвадаму и буддийскому наставнику Чхонгвану.Через некоторое время разносится весть о том, что почтенный монах убит, а та часть флейты, которая хранилась у него, похищена. Подозрение падает на ученика Чхонгвана по имени Чон У Чхи. В наказание юношу вместе с его верным псом Чхорэном заключают навеки в картину.
Качество:BDRip720p
Формат: MKV
Видео кодек: H.264
Аудио кодек: AC3
Видео: English, 4366 Кбит/сек, 1280*544 (2,35:1), в 23,976 кадр/сек, AVC ([email protected])
Аудио: Russian, 256 Кбит/сек, 48,0 КГц, 16 бит, 2 канала(ов), AC-3
Субтитры:Russian, English - VobSub

MI:

Общее
Уникальный идентификатор : 197354526908595685866130152865748151152 (0x9479196BF1FD29A2929DB25006D2EB70)
Полное имя : D:\торрент\Chon.U.Chhi.Daosskij.Mag.2009.BDRip720p.mkv
Формат : Matroska
Размер файла : 4,38 Гбайт
Продолжительность : 2 ч. 15 м.
Общий поток : 4628 Кбит/сек
Дата кодирования : UTC 2011-05-28 06:46:48
Программа кодирования : mkvmerge v4.7.0 ('Just Like You Imagined') built on Apr 21 2011 01:13:14
Библиотека кодирования : libebml v1.2.0 + libmatroska v1.1.0
Видео
Идентификатор : 1
Формат : AVC
Формат/Информация : Advanced Video Codec
Профиль формата : [email protected]
Параметр CABAC формата : Да
Параметр ReFrames формата : 10 кадры
Параметры GOP формата : M=1, N=15
Идентификатор кодека : V_MPEG4/ISO/AVC
Продолжительность : 2 ч. 15 м.
Битрейт : 4366 Кбит/сек
Ширина : 1280 пикс.
Высота : 544 пикс.
Соотношение сторон : 2,35:1
Частота кадров : 23,976 кадр/сек
Цветовое пространство : YUV
Подвыборка цветности : 4:2:0
Битовая глубина : 8 бит
Тип развёртки : Прогрессивная
Бит/(Пиксели*Кадры) : 0.262
Размер потока : 4,05 Гбайт (92%)
Библиотека кодирования : x264 core 115 r1995 c1e60b9
Настройки программы : cabac=1 / ref=10 / deblock=1:-2:-1 / analyse=0x3:0x133 / me=umh / subme=8 / psy=1 / psy_rd=1.00:0.15 / mixed_ref=1 / me_range=32 / chroma_me=1 / trellis=2 / 8x8dct=1 / cqm=0 / deadzone=21,11 / fast_pskip=0 / chroma_qp_offset=-3 / threads=6 / sliced_threads=0 / nr=0 / decimate=1 / interlaced=0 / bluray_compat=0 / constrained_intra=0 / bframes=7 / b_pyramid=2 / b_adapt=2 / b_bias=0 / direct=3 / weightb=1 / open_gop=0 / weightp=2 / keyint=250 / keyint_min=24 / scenecut=40 / intra_refresh=0 / rc_lookahead=50 / rc=2pass / mbtree=1 / bitrate=4366 / ratetol=1.0 / qcomp=0.60 / qpmin=5 / qpmax=51 / qpstep=4 / cplxblur=20.0 / qblur=0.5 / ip_ratio=1.40 / aq=1:1.00
Язык : English
Аудио
Идентификатор : 2
Формат : AC-3
Формат/Информация : Audio Coding 3
Расширение режима : CM (complete main)
Идентификатор кодека : A_AC3
Продолжительность : 2 ч. 15 м.
Вид битрейта : Постоянный
Битрейт : 256 Кбит/сек
Канал(ы) : 2 канала(ов)
Расположение каналов : Front: L R
Частота : 48,0 КГц
Битовая глубина : 16 бит
Метод сжатия : С потерями
Размер потока : 248 Мбайт (6%)
Язык : Russian
Текст #1
Идентификатор : 3
Формат : VobSub
Режим смешивания : zlib
Идентификатор кодека : S_VOBSUB
Идентификатор кодека/Информация : The same subtitle format used on DVDs
Язык : Russian
Текст #2
Идентификатор : 4
Формат : VobSub
Режим смешивания : zlib
Идентификатор кодека : S_VOBSUB
Идентификатор кодека/Информация : The same subtitle format used on DVDs
Язык : English

Скриншоты

        

_________________
Человек – это канат, натянутый между животным и сверхчеловеком, – канат над пропастью.
В человеке ценно то, что он мост, а не цель. Фридрих Ницше


Last edited by Delia on 2011-08-26 18:31; edited 2 times in total
Other forum [Profile] [PM]
Display posts from previous:    
Reply to topic

The time now is: Today 00:28

All times are GMT + 3 Hours



You cannot post new topics in this forum
You cannot reply to topics in this forum
You cannot edit your posts in this forum
You cannot delete your posts in this forum
You cannot vote in polls in this forum
You cannot attach files in this forum
You cannot download files in this forum