Today is a free download without charge Download

Сны Акиры Куросавы / Dreams / Yume (Акира Куросава / Akira Kurosawa) [1990, США, Япония, фэнтези, драма, WEB-DL 1080p] MVO + VO + Sub Eng, Rus + Original Jap

Reply to topic
 
Author
Message

Omen ®

Longevity: 8 years 5 months

Posts: 181087

Торрент-статистика

Post 19-Feb-2013 12:24

[Quote]

Сны Акиры Куросавы / Dreams / Yume
Страна: США, Япония
Жанр: фэнтези, драма
Год выпуска: 1990
Продолжительность: 01:59:33-Перевод 1: Профессиональный (многоголосый закадровый)
Перевод 2: Любительский одноголосый закадровый
Cубтитры: русские, английские
Оригинальная аудиодорожка: японский-Режиссер: Акира Куросава / Akira Kurosawa-В ролях: Акира Тэрао, Мицуко Байсё, Тошие Негиши, Миэко Харада, Мицунори Исаки, Тосихико Накано, Ёситака Дзуси, Хисаси Игава, Тёскэ Икария, Тисю Рю-Описание: Восемь новелл, связанных лишь тем, что они являются «снами» режиссёра. Среди них рассказ о том, как молодой Куросава попадает в картину Винсента Ван Гога и встречается там с самим автором. Также рассказы о жертвах Второй мировой и об апокалиптических картинах ядерной войн.
В одной из новелл, повествующей о лисьей свадьбе, домик, на фоне которого стоит герой — маленький мальчик, является воспоминанием Куросавы о доме, в котором он жил в детстве. Весь фильм во многом автобиографичен.-Сэмпл: Скачать-Доп. информация: неотключаемые английские субтитры-Тип релиза: WEB-DL 1080p
Контейнер: MKV-Видео: 1908x1080 (16:9); 5103 kbps; 23.976 fps; 0.103 bpp
Аудио 1: Russian; AC3; 48.0 KHz; 2ch; 192 Kbps (MVO)
Аудио 2: Russian; AC3; 48.0 KHz; 2ch; 192 Kbps (VO)
Аудио 3: Japanese; AAC; 48.0 KHz; 2ch; 160 Kbps
Формат субтитров: softsub (SRT)

MediaInfo

Format : Matroska
Format version : Version 2
File size : 4.80 GiB
Duration : 1h 59mn
Overall bit rate : 5 750 Kbps
Encoded date : UTC 2013-02-13 18:06:13
Writing application : mkvmerge v5.0.1 ('Es ist Sommer') built on Oct 9 2011 11:55:43
Writing library : libebml v1.2.2 + libmatroska v1.3.0
Video
ID : 1
Format : AVC
Format/Info : Advanced Video Codec
Format profile : [email protected]
Format settings, CABAC : Yes
Format settings, ReFrames : 4 frames
Format settings, GOP : N=2
Codec ID : V_MPEG4/ISO/AVC
Duration : 1h 59mn
Width : 1 908 pixels
Height : 1 080 pixels
Display aspect ratio : 16:9
Frame rate mode : Constant
Frame rate : 23.976 fps
Color space : YUV
Chroma subsampling : 4:2:0
Bit depth : 8 bits
Scan type : Progressive
Language : English
Default : Yes
Forced : No
Color primaries : BT.709
Transfer characteristics : BT.709
Matrix coefficients : BT.709
Audio #1
ID : 2
Format : AC-3
Format/Info : Audio Coding 3
Mode extension : CM (complete main)
Format settings, Endianness : Big
Codec ID : A_AC3
Duration : 1h 59mn
Bit rate mode : Constant
Bit rate : 192 Kbps
Channel(s) : 2 channels
Channel positions : Front: L R
Sampling rate : 48.0 KHz
Bit depth : 16 bits
Compression mode : Lossy
Stream size : 164 MiB (3%)
Title : MVO
Language : Russian
Default : Yes
Forced : No
Audio #2
ID : 3
Format : AC-3
Format/Info : Audio Coding 3
Mode extension : CM (complete main)
Format settings, Endianness : Big
Codec ID : A_AC3
Duration : 1h 59mn
Bit rate mode : Constant
Bit rate : 192 Kbps
Channel(s) : 2 channels
Channel positions : Front: L R
Sampling rate : 48.0 KHz
Bit depth : 16 bits
Compression mode : Lossy
Stream size : 164 MiB (3%)
Title : VO
Language : Russian
Default : No
Forced : No
Audio #3
ID : 4
Format : AAC
Format/Info : Advanced Audio Codec
Format profile : LC
Codec ID : A_AAC
Duration : 1h 59mn
Channel(s) : 2 channels
Channel positions : Front: L R
Sampling rate : 48.0 KHz
Compression mode : Lossy
Language : English
Default : No
Forced : No
Text
ID : 5
Format : UTF-8
Codec ID : S_TEXT/UTF8
Codec ID/Info : UTF-8 Plain Text
Language : Russian
Default : No
Forced : No
Menu
00:00:00.000 : en:Credits.
00:02:00.000 : en:A warning.
00:03:26.000 : en:Foxes procession.
00:08:51.000 : en:They don't usually forgive.
00:11:42.000 : en:Along the rainbow.
00:12:48.000 : en:Mysterious girl.
00:15:29.000 : en:Spirits of the trees.
00:18:49.000 : en:Dance of the dolls.
00:23:27.000 : en:A reminder.
00:25:43.000 : en:Weary climbers.
00:31:15.000 : en:Storm rages.
00:36:12.000 : en:Snow fairy.
00:40:42.000 : en:Storm subsides.
00:44:44.000 : en:Snarling sentinel.
00:48:51.000 : en:Private Noguchi.
00:54:49.000 : en:Commander's address.
01:02:26.000 : en:Sentinel returns.
01:03:00.000 : en:Into the caves.
01:06:46.000 : en:Vincent Van Gogh.
01:10:19.000 : en:Artist's journey.
01:12:21.000 : en:Taking wing.
01:13:17.000 : en:Cataclysm.
01:15:51.000 : en:Death's calling card.
01:20:58.000 : en:Horned demon.
01:26:07.000 : en:Floral mutations.
01:34:31.000 : en:Valley of torment.
01:38:26.000 : en:Arrival of torment.
01:40:09.000 : en:Old man.
01:46:46.000 : en:Funeral procession.
01:53:38.000 : en:Gift from nature.
01:55:28.000 : en:End credits.

Скриншоты

Other forum [Profile] [PM]
Display posts from previous:    
Reply to topic

The time now is: Today 12:14

All times are GMT + 3 Hours



You cannot post new topics in this forum
You cannot reply to topics in this forum
You cannot edit your posts in this forum
You cannot delete your posts in this forum
You cannot vote in polls in this forum
You cannot attach files in this forum
You cannot download files in this forum