Today is a free download without charge Download

Город ангелов / City of Angels (Брэд Силберлинг / Brad Silberling) [1998, Германия, США, фэнтези, триллер, драма, мелодрама, HDTVRip 720p] 2xDub + DVO + 3xAVO + VO + MVO (Ukr) + Sub Rus, Eng + Original Eng

Reply to topic
 
Author
Message

Omen ®

Longevity: 8 years 5 months

Posts: 181087

Торрент-статистика

Post 19-Feb-2013 12:24

[Quote]

Город ангелов / City of Angels
Страна: Германия, США
Студия: Atlas Entertainment , Monarchy Enterprises B.V. , Regency Enterprises
Жанр: фэнтези, триллер, драма, мелодрама
Год выпуска: 1998
Продолжительность: 01:54:07
Перевод #1: Профессиональный (дублированный) Мост Видео
Перевод #2: Профессиональный (дублированный) Варус Видео
Перевод #3: Профессиональный (двухголосый закадровый) НТВ+
Перевод #4: Авторский (одноголосый закадровый) Визгунов
Перевод #5: Авторский (одноголосый закадровый) Кашкин (Первомайский)
Перевод #6: Авторский (одноголосый закадровый) Медведев
Перевод #7: Одноголосый (закадровый) Неизвестный
Перевод #8: Профессиональный (многоголосый закадровый) "1+1"
Cубтитры: русские, английские
Оригинальная аудиодорожка: английский
Режиссер: Брэд Силберлинг / Brad Silberling
В ролях: Николас Кейдж, Мег Райан, Андре Брогер, Деннис Франц, Колм Фиор, Робин Бартлетт, Джоанна Мерлин, Сара Дэмф, Ронда Дотсон, Найджел Гиббс
Описание: Ангелы живут не на небесах. Они невидимо присутствуют рядом с людьми, прислушиваясь к их мыслям и направляя их поступки, подбадривая и утешая в минуты отчаяния. Но для них не существует мира человеческих чувств: вкуса черного кофе, боли порезанного пальца или любви. Поэтому некоторых из них так тянет к людям, и порой ангел теряет свои крылья и превращается в простого смертного. Что и происходит с героем фильма, которого увлекла на Землю любовь к женщине.- by Прагматик-Сэмпл: http://multi-up.com/833009
Тип релиза: HDTVRip 720p [Fizo]
Контейнер: MKV
Видео: h.264, 1280x536, 23.976 fps, 7221 kbps
Аудио #1: Russian: AC3 5.1, 48 kHz, 384 kbps avg |Дубляж, Мост Видео|
Аудио #2: Russian: AC3 2.0, 48 kHz, 192 kbps avg |Дубляж, Варус Видео|
Аудио #3: Russian: AC3 2.0, 48 kHz, 192 kbps avg |Двухголосый закадровый, НТВ+|
Аудио #4: Russian: AC3 5.1, 48 kHz, 384 kbps avg |Авторский (одноголосый закадровый), Визгунов|
Аудио #5: Russian: AC3 5.1, 48 kHz, 384 kbps avg |Авторский (одноголосый закадровый), Кашкин (Первомайский)|
Аудио #6: Russian: AC3 2.0, 48 kHz, 192 kbps avg |Авторский (одноголосый закадровый), Медведев|
Аудио #7: Russian: AC3 2.0, 48 kHz, 192 kbps avg |Одноголосый закадровый, Неизвестный|
Аудио #8: Ukrainian: AC3 2.0, 48 kHz, 192 kbps avg |Многоголосый закадровый, "1+1"|
Аудио #9: English: AC3 5.1, 48 kHz, 384 kbps avg |Оригинал|
Формат субтитров: softsub (SRT)

MediaInfo

Complete name : G:\City.of.Angels.1998.720p.HDTV.7xRus.Ukr.Eng.HDCLUB.mkv
Format : Matroska
Format version : Version 4 / Version 2
File size : 7.91 GiB
Duration : 1h 54mn
Overall bit rate : 9 914 Kbps
Encoded date : UTC 2013-02-03 18:00:30
Writing application : mkvmerge v6.0.0 ('Coming Up For Air') built on Jan 20 2013 09:52:00
Writing library : libebml v1.3.0 + libmatroska v1.4.0
Video
ID : 1
Format : AVC
Format/Info : Advanced Video Codec
Format profile : [email protected]
Format settings, CABAC : Yes
Format settings, ReFrames : 9 frames
Muxing mode : Container [email protected]
Codec ID : V_MPEG4/ISO/AVC
Duration : 1h 54mn
Bit rate : 7 221 Kbps
Width : 1 280 pixels
Height : 536 pixels
Display aspect ratio : 2.40:1
Frame rate mode : Constant
Frame rate : 23.976 fps
Color space : YUV
Chroma subsampling : 4:2:0
Bit depth : 8 bits
Scan type : Progressive
Bits/(Pixel*Frame) : 0.439
Stream size : 5.76 GiB (73%)
Writing library : x264 core 120 r2164 da19765
Encoding settings : cabac=1 / ref=9 / deblock=1:-2:-2 / analyse=0x3:0x133 / me=umh / subme=10 / psy=1 / psy_rd=1.10:0.10 / mixed_ref=1 / me_range=32 / chroma_me=1 / trellis=2 / 8x8dct=1 / cqm=0 / deadzone=6,6 / fast_pskip=1 / chroma_qp_offset=-6 / threads=6 / sliced_threads=0 / nr=0 / decimate=0 / interlaced=0 / bluray_compat=0 / constrained_intra=0 / bframes=8 / b_pyramid=2 / b_adapt=2 / b_bias=0 / direct=3 / weightb=1 / open_gop=0 / weightp=2 / keyint=240 / keyint_min=22 / scenecut=40 / intra_refresh=0 / rc=crf / mbtree=0 / crf=18.0 / qcomp=0.80 / qpmin=0 / qpmax=69 / qpstep=4 / ip_ratio=1.10 / pb_ratio=1.10 / aq=2:0.80
Default : No
Forced : No
Audio #1
ID : 2
Format : AC-3
Format/Info : Audio Coding 3
Mode extension : CM (complete main)
Format settings, Endianness : Big
Codec ID : A_AC3
Duration : 1h 54mn
Bit rate mode : Constant
Bit rate : 384 Kbps
Channel(s) : 6 channels
Channel positions : Front: L C R, Side: L R, LFE
Sampling rate : 48.0 KHz
Bit depth : 16 bits
Compression mode : Lossy
Stream size : 314 MiB (4%)
Title : AC3 5.1 ch 384 kbps Dub Most-Video
Language : Russian
Default : Yes
Forced : No
Audio #2
ID : 3
Format : AC-3
Format/Info : Audio Coding 3
Mode extension : CM (complete main)
Format settings, Endianness : Big
Codec ID : A_AC3
Duration : 1h 54mn
Bit rate mode : Constant
Bit rate : 192 Kbps
Channel(s) : 2 channels
Channel positions : Front: L R
Sampling rate : 48.0 KHz
Bit depth : 16 bits
Compression mode : Lossy
Stream size : 157 MiB (2%)
Title : AC3 2 ch 192 kbps Dub Varus-Video
Language : Russian
Default : No
Forced : No
Audio #3
ID : 4
Format : AC-3
Format/Info : Audio Coding 3
Mode extension : CM (complete main)
Format settings, Endianness : Big
Codec ID : A_AC3
Duration : 1h 54mn
Bit rate mode : Constant
Bit rate : 192 Kbps
Channel(s) : 2 channels
Channel positions : Front: L R
Sampling rate : 48.0 KHz
Bit depth : 16 bits
Compression mode : Lossy
Stream size : 157 MiB (2%)
Title : AC3 2 ch 192 kbps DVO HTB+
Language : Russian
Default : No
Forced : No
Audio #4
ID : 5
Format : AC-3
Format/Info : Audio Coding 3
Mode extension : CM (complete main)
Format settings, Endianness : Big
Codec ID : A_AC3
Duration : 1h 54mn
Bit rate mode : Constant
Bit rate : 384 Kbps
Channel(s) : 6 channels
Channel positions : Front: L C R, Side: L R, LFE
Sampling rate : 48.0 KHz
Bit depth : 16 bits
Compression mode : Lossy
Stream size : 314 MiB (4%)
Title : AC3 5.1 ch 384 kbps Сергей Визгунов
Language : Russian
Default : No
Forced : No
Audio #5
ID : 6
Format : AC-3
Format/Info : Audio Coding 3
Mode extension : CM (complete main)
Format settings, Endianness : Big
Codec ID : A_AC3
Duration : 1h 54mn
Bit rate mode : Constant
Bit rate : 384 Kbps
Channel(s) : 6 channels
Channel positions : Front: L C R, Side: L R, LFE
Sampling rate : 48.0 KHz
Bit depth : 16 bits
Compression mode : Lossy
Stream size : 314 MiB (4%)
Title : AC3 5.1 ch 384 kbps Александр Кашкин (Первомайский)
Language : Russian
Default : No
Forced : No
Audio #6
ID : 7
Format : AC-3
Format/Info : Audio Coding 3
Mode extension : CM (complete main)
Format settings, Endianness : Big
Codec ID : A_AC3
Duration : 1h 54mn
Bit rate mode : Constant
Bit rate : 192 Kbps
Channel(s) : 2 channels
Channel positions : Front: L R
Sampling rate : 48.0 KHz
Bit depth : 16 bits
Compression mode : Lossy
Stream size : 157 MiB (2%)
Title : AC3 2 ch 192 kbps Алексей Медведев
Language : Russian
Default : No
Forced : No
Audio #7
ID : 8
Format : AC-3
Format/Info : Audio Coding 3
Mode extension : CM (complete main)
Format settings, Endianness : Big
Codec ID : A_AC3
Duration : 1h 54mn
Bit rate mode : Constant
Bit rate : 192 Kbps
Channel(s) : 2 channels
Channel positions : Front: L R
Sampling rate : 48.0 KHz
Bit depth : 16 bits
Compression mode : Lossy
Stream size : 157 MiB (2%)
Title : AC3 2 ch 192 kbps VO Unknown
Language : Russian
Default : No
Forced : No
Audio #8
ID : 9
Format : AC-3
Format/Info : Audio Coding 3
Mode extension : CM (complete main)
Format settings, Endianness : Big
Codec ID : A_AC3
Duration : 1h 54mn
Bit rate mode : Constant
Bit rate : 192 Kbps
Channel(s) : 2 channels
Channel positions : Front: L R
Sampling rate : 48.0 KHz
Bit depth : 16 bits
Compression mode : Lossy
Stream size : 157 MiB (2%)
Title : AC3 2 ch 192 kbps MVO 1+1
Language : Ukrainian
Default : No
Forced : No
Audio #9
ID : 10
Format : AC-3
Format/Info : Audio Coding 3
Mode extension : CM (complete main)
Format settings, Endianness : Big
Codec ID : A_AC3
Duration : 1h 54mn
Bit rate mode : Constant
Bit rate : 384 Kbps
Channel(s) : 6 channels
Channel positions : Front: L C R, Side: L R, LFE
Sampling rate : 48.0 KHz
Bit depth : 16 bits
Compression mode : Lossy
Stream size : 314 MiB (4%)
Title : AC3 5.1 ch 384 kbps HDTV
Language : English
Default : No
Forced : No
Text #1
ID : 11
Format : UTF-8
Codec ID : S_TEXT/UTF8
Codec ID/Info : UTF-8 Plain Text
Language : Russian
Default : No
Forced : No
Text #2
ID : 12
Format : UTF-8
Codec ID : S_TEXT/UTF8
Codec ID/Info : UTF-8 Plain Text
Language : English
Default : No
Forced : No

Скриншоты

Other forum [Profile] [PM]
Similar theme
Forum Topic Author Torrent Replies Last Post
./templates/default/images/folder_dl.gif Приключения и квесты Small Town Terrors 3 Galdors Bluff Sammleredition / Террор в городке 3 Блеф Галдора Коллекционное издание [P] [RUS] (2015) Omen
2 | 0

0 | 2342

24

2015-06-13 15:00
Omen Latest
Display posts from previous:    
Reply to topic

The time now is: Today 12:39

All times are GMT + 3 Hours



You cannot post new topics in this forum
You cannot reply to topics in this forum
You cannot edit your posts in this forum
You cannot delete your posts in this forum
You cannot vote in polls in this forum
You cannot attach files in this forum
You cannot download files in this forum