Today is a free download without charge Download

The Moody Blues - Threshold of a Dream - Live at the Isle of Wight Festival [2010, Rock, Blu-ray]

Reply to topic
 
Author
Message

Omen ®

Longevity: 8 years 3 months

Posts: 181087

Торрент-статистика

Post 19-Feb-2013 08:16

[Quote]


- Threshold of a Dream - Live at the Isle of Wight Festival -

Лейбл:
Жанр: Rock
Продолжительность: 01:18:55
Год выпуска: 2010
Режиссер: Murray Lerner
-
In 1970 The Moody Blues were at their creative and commercial peak. After reinventing themselves from their R&B roots to a much more sophisticated sound, between 1967 and 1970 they released five albums, four of which hit the Top 5 in the UK with two of them going to No.1. They enjoyed similar success in the USA where four of the albums hit the Top 20 and the other was just outside. At the end of August 1970, shortly after the release of their album "A Question Of Balance", The Moody Blues took to the stage of the Isle Of Wight Festival in front of an audience estimated at over half a million. This Blu-ray makes that performance available to be seen in high definition for the first time.
-
Justin Hayward - vocals, guitar, sitar
John Lodge - vocals, bass
Ray Thomas - vocals, flute
Graeme Edge - drums
Mike Pinder - vocals, mellotron, keyboards

Треклист

01. Gypsy
02. Tuesday Afternoon
03. Never Comes The Day
04. Tortoise And The Hare
05. Question
06. Sunset
07. Melancholy Man
08. Nights In White Satin
09. Legend Of A Mind
10. Ride My See Saw
Documentary:
· Threshold of a Dream
· Return to the Island
· Isle of Wight Pop Fesitval 1970
· Tear Down the Fences
· Early Beginnings: Bo Diddley
· The Mellatron
· Psychedelia and Change
· Introduction to the Concert
Conclusion:
· Reflections
· Late Lament
Качество: Blu-ray
Контейнер: BDMV
Видео кодек: MPEG4
Аудио кодек: DTS, PCM, AC3
Видео: MPEG4 Video (H264) 1920x1080 29.97fps
Аудио:
English DTS-HD MA 5.1 (48 kHz / 2676 kbps / 16-bit)
English Dolby Digital 5.1 (448 kbps)
English LPCM 2.0 (48 kHz / 1536 kbps / 16-bit)
Субтитры
English
French
German
Spanish

Отчёт MediaInfo

GeneralComplete name : F:\The Moody Blues - Threshold of a Dream Live at the Isle of Wight Festival\BDMV\PLAYLIST\00000.mplsFormat : Blu-ray PlaylistFile size : 602 BytesDuration : 1h 18mnOverall bit rate mode : VariableOverall bit rate : 1 bps
VideoID : 4113 (0x1011)Menu ID : 1 (0x1)Format : AVCFormat/Info : Advanced Video CodecFormat profile : [email protected] settings, CABAC : YesFormat settings, ReFrames : 4 framesCodec ID : 27Duration : 1h 18mnBit rate mode : VariableMaximum bit rate : 35.0 MbpsWidth : 1 920 pixelsHeight : 1 080 pixelsDisplay aspect ratio : 16:9Frame rate : 29.970 fpsStandard : NTSCColor space : YUVChroma subsampling : 4:2:0Bit depth : 8 bitsScan type : InterlacedScan order : Top Field FirstColor primaries : BT.709Transfer characteristics : BT.709Matrix coefficients : BT.709Source : 00000.m2ts
Audio #1ID : 4352 (0x1100)Menu ID : 1 (0x1)Format : PCMFormat settings, Endianness : BigFormat settings, Sign : SignedMuxing mode : Blu-rayCodec ID : 128Duration : 1h 18mnBit rate mode : ConstantBit rate : 1 536 KbpsChannel(s) : 2 channelsChannel positions : Front: L RSampling rate : 48.0 KHzBit depth : 16 bitsStream size : 867 MiB (4%)Language : EnglishSource : 00000.m2ts
Audio #2ID : 4353 (0x1101)Menu ID : 1 (0x1)Format : AC-3Format/Info : Audio Coding 3Mode extension : CM (complete main)Format settings, Endianness : BigCodec ID : 129Duration : 1h 18mnBit rate mode : ConstantBit rate : 448 KbpsChannel(s) : 6 channelsChannel positions : Front: L C R, Side: L R, LFESampling rate : 48.0 KHzBit depth : 16 bitsCompression mode : LossyStream size : 253 MiB (1%)Language : Englishdialnorm : -27dialnorm/String : -27 dBcompr : -0.28compr/String : -0.28 dBbsid : 8dialnorm_Average : -27dialnorm_Average/String : -27 dBdialnorm_Minimum : -27dialnorm_Minimum/String : -27 dBdialnorm_Maximum : -27dialnorm_Maximum/String : -27 dBdialnorm_Count : 650compr_Average : -1.97compr_Average/String : -1.97 dBcompr_Minimum : -6.88compr_Minimum/String : -6.88 dBcompr_Maximum : -0.28compr_Maximum/String : -0.28 dBcompr_Count : 650Source : 00000.m2ts
Audio #3ID : 4354 (0x1102)Menu ID : 1 (0x1)Format : DTSFormat/Info : Digital Theater SystemsFormat profile : MA / CoreMode : 16Format settings, Endianness : BigMuxing mode : Stream extensionCodec ID : 134Duration : 1h 18mnBit rate mode : VariableBit rate : Unknown / 1 509 KbpsChannel(s) : 6 channelsChannel positions : Front: L C R, Side: L R, LFESampling rate : 48.0 KHzBit depth : 16 bitsCompression mode : Lossless / LossyLanguage : EnglishSource : 00000.m2ts
Text #1ID : 4608 (0x1200)Menu ID : 1 (0x1)Format : PGSCodec ID : 144Duration : 1h 18mnLanguage : EnglishSource : 00000.m2ts
Text #2ID : 4609 (0x1201)Menu ID : 1 (0x1)Format : PGSCodec ID : 144Duration : 1h 18mnLanguage : GermanSource : 00000.m2ts
Text #3ID : 4610 (0x1202)Menu ID : 1 (0x1)Format : PGSCodec ID : 144Duration : 1h 18mnLanguage : SpanishSource : 00000.m2ts
Text #4ID : 4611 (0x1203)Menu ID : 1 (0x1)Format : PGSCodec ID : 144Duration : 1h 18mnLanguage : FrenchSource : 00000.m2ts
Menu00:00:00.000 : Chapter 100:02:08.027 : Chapter 200:03:22.302 : Chapter 300:07:42.728 : Chapter 400:09:40.046 : Chapter 500:11:36.629 : Chapter 600:16:38.163 : Chapter 700:19:19.725 : Chapter 800:20:18.784 : Chapter 900:23:54.833 : Chapter 1000:29:01.406 : Chapter 1100:34:20.825 : Chapter 1200:38:27.271 : Chapter 1300:44:40.377 : Chapter 1400:50:04.134 : Chapter 1500:55:39.002 : Chapter 1601:01:35.358 : Chapter 1701:08:52.862 : Chapter 1801:13:13.122 : Chapter 1901:15:19.781 : Chapter 2001:18:54.629 : Chapter 21

BDInfo

Disc Title: The Moody Blues - Threshold of a Dream Live at the Isle of Wight FestivalDisc Size: 21 330 155 844 bytesProtection: AACSBD-Java: NoBDInfo: 0.5.6
Notes:
BDINFO HOME: Cinema Squid http://www.cinemasquid.com/blu-ray/tools/bdinfo
INCLUDES FORUMS REPORT FOR: AVS Forum Blu-ray Audio and Video Specifications Thread http://www.avsforum.com/avs-vb/showthread.php?t=1155731
WARNING: Report is incomplete because: Scan has not been run.
********************PLAYLIST: 00000.MPLS********************
Код:
Total   Video
Title                                                           Codec   Length  Movie Size      Disc Size       Bitrate Bitrate Main Audio Track                          Secondary Audio Track
-----                                                           ------  ------- --------------  --------------  ------- ------- ------------------                        ---------------------
00000.MPLS                                                      AVC     1:18:55 0               21 330 155 844  0,00    0,00    LPCM 2.0 1536Kbps (48kHz/16-bit)          DD AC3 5.1 448Kbps
Код:
DISC INFO:
Disc Title:     The Moody Blues - Threshold of a Dream Live at the Isle of Wight Festival
Disc Size:      21 330 155 844 bytes
Protection:     AACS
BD-Java:        No
BDInfo:         0.5.6
PLAYLIST REPORT:
Name:                   00000.MPLS
Length:                 1:18:55 (h:m:s)
Size:                   0 bytes
Total Bitrate:          0,00 Mbps
VIDEO:
Codec                   Bitrate             Description
-----                   -------             -----------
MPEG-4 AVC Video        0 kbps              1080i / 29,970 fps / 16:9 / High Profile 4.1
AUDIO:
Codec                           Language        Bitrate         Description
-----                           --------        -------         -----------
LPCM Audio                      English         1536 kbps       2.0 / 48 kHz / 1536 kbps / 16-bit
Dolby Digital Audio             English         448 kbps        5.1 / 48 kHz / 448 kbps / DN -4dB
DTS-HD Master Audio             English         0 kbps          5.1 / 48 kHz / 16-bit (DTS Core: 5.1 / 48 kHz / 1509 kbps / 16-bit)
SUBTITLES:
Codec                           Language        Bitrate         Description
-----                           --------        -------         -----------
Presentation Graphics           English         0,000 kbps
Presentation Graphics           German          0,000 kbps
Presentation Graphics           Spanish         0,000 kbps
Presentation Graphics           French          0,000 kbps
FILES:
Name            Time In         Length          Size            Total Bitrate
----            -------         ------          ----            -------------
00000.M2TS      0:00:00.000     1:18:55.630     0               0
CHAPTERS:
Number          Time In         Length          Avg Video Rate  Max 1-Sec Rate  Max 1-Sec Time  Max 5-Sec Rate  Max 5-Sec Time  Max 10Sec Rate  Max 10Sec Time  Avg Frame Size  Max Frame Size  Max Frame Time
------          -------         ------          --------------  --------------  --------------  --------------  --------------  --------------  --------------  --------------  --------------  --------------
1               0:00:00.000     0:02:08.027     0 kbps          0 kbps          00:00:00.000    0 kbps          00:00:00.000    0 kbps          00:00:00.000    0 bytes         0 bytes         00:00:00.000
2               0:02:08.027     0:01:14.274     0 kbps          0 kbps          00:00:00.000    0 kbps          00:00:00.000    0 kbps          00:00:00.000    0 bytes         0 bytes         00:00:00.000
3               0:03:22.302     0:04:20.426     0 kbps          0 kbps          00:00:00.000    0 kbps          00:00:00.000    0 kbps          00:00:00.000    0 bytes         0 bytes         00:00:00.000
4               0:07:42.728     0:01:57.317     0 kbps          0 kbps          00:00:00.000    0 kbps          00:00:00.000    0 kbps          00:00:00.000    0 bytes         0 bytes         00:00:00.000
5               0:09:40.046     0:01:56.583     0 kbps          0 kbps          00:00:00.000    0 kbps          00:00:00.000    0 kbps          00:00:00.000    0 bytes         0 bytes         00:00:00.000
6               0:11:36.629     0:05:01.534     0 kbps          0 kbps          00:00:00.000    0 kbps          00:00:00.000    0 kbps          00:00:00.000    0 bytes         0 bytes         00:00:00.000
7               0:16:38.163     0:02:41.561     0 kbps          0 kbps          00:00:00.000    0 kbps          00:00:00.000    0 kbps          00:00:00.000    0 bytes         0 bytes         00:00:00.000
8               0:19:19.725     0:00:59.058     0 kbps          0 kbps          00:00:00.000    0 kbps          00:00:00.000    0 kbps          00:00:00.000    0 bytes         0 bytes         00:00:00.000
9               0:20:18.784     0:03:36.049     0 kbps          0 kbps          00:00:00.000    0 kbps          00:00:00.000    0 kbps          00:00:00.000    0 bytes         0 bytes         00:00:00.000
10              0:23:54.833     0:05:06.572     0 kbps          0 kbps          00:00:00.000    0 kbps          00:00:00.000    0 kbps          00:00:00.000    0 bytes         0 bytes         00:00:00.000
11              0:29:01.406     0:05:19.419     0 kbps          0 kbps          00:00:00.000    0 kbps          00:00:00.000    0 kbps          00:00:00.000    0 bytes         0 bytes         00:00:00.000
12              0:34:20.825     0:04:06.446     0 kbps          0 kbps          00:00:00.000    0 kbps          00:00:00.000    0 kbps          00:00:00.000    0 bytes         0 bytes         00:00:00.000
13              0:38:27.271     0:06:13.106     0 kbps          0 kbps          00:00:00.000    0 kbps          00:00:00.000    0 kbps          00:00:00.000    0 bytes         0 bytes         00:00:00.000
14              0:44:40.377     0:05:23.756     0 kbps          0 kbps          00:00:00.000    0 kbps          00:00:00.000    0 kbps          00:00:00.000    0 bytes         0 bytes         00:00:00.000
15              0:50:04.134     0:05:34.867     0 kbps          0 kbps          00:00:00.000    0 kbps          00:00:00.000    0 kbps          00:00:00.000    0 bytes         0 bytes         00:00:00.000
16              0:55:39.002     0:05:56.356     0 kbps          0 kbps          00:00:00.000    0 kbps          00:00:00.000    0 kbps          00:00:00.000    0 bytes         0 bytes         00:00:00.000
17              1:01:35.358     0:07:17.503     0 kbps          0 kbps          00:00:00.000    0 kbps          00:00:00.000    0 kbps          00:00:00.000    0 bytes         0 bytes         00:00:00.000
18              1:08:52.862     0:04:20.260     0 kbps          0 kbps          00:00:00.000    0 kbps          00:00:00.000    0 kbps          00:00:00.000    0 bytes         0 bytes         00:00:00.000
19              1:13:13.122     0:02:06.659     0 kbps          0 kbps          00:00:00.000    0 kbps          00:00:00.000    0 kbps          00:00:00.000    0 bytes         0 bytes         00:00:00.000
20              1:15:19.781     0:03:34.847     0 kbps          0 kbps          00:00:00.000    0 kbps          00:00:00.000    0 kbps          00:00:00.000    0 bytes         0 bytes         00:00:00.000
21              1:18:54.629     0:00:01.001     0 kbps          0 kbps          00:00:00.000    0 kbps          00:00:00.000    0 kbps          00:00:00.000    0 bytes         0 bytes         00:00:00.000
STREAM DIAGNOSTICS:
File            PID             Type            Codec           Language                Seconds                 Bitrate                 Bytes           Packets
----            ---             ----            -----           --------                --------------          --------------          -------------   -----
00000.M2TS      4113 (0x1011)   0x1B            AVC                                     0                       0                       0               0
00000.M2TS      4352 (0x1100)   0x80            LPCM            eng (English)           0                       0                       0               0
00000.M2TS      4353 (0x1101)   0x81            AC3             eng (English)           0                       0                       0               0
00000.M2TS      4354 (0x1102)   0x86            DTS-HD MA       eng (English)           0                       0                       0               0
00000.M2TS      4608 (0x1200)   0x90            PGS             eng (English)           0                       0                       0               0
00000.M2TS      4609 (0x1201)   0x90            PGS             deu (German)            0                       0                       0               0
00000.M2TS      4610 (0x1202)   0x90            PGS             spa (Spanish)           0                       0                       0               0
00000.M2TS      4611 (0x1203)   0x90            PGS             fra (French)            0                       0                       0               0
QUICK SUMMARY:
Disc Title: The Moody Blues - Threshold of a Dream Live at the Isle of Wight FestivalDisc Size: 21 330 155 844 bytesProtection: AACSBD-Java: NoPlaylist: 00000.MPLSSize: 0 bytesLength: 1:18:55Total Bitrate: 0,00 MbpsVideo: MPEG-4 AVC Video / 0 kbps / 1080i / 29,970 fps / 16:9 / High Profile 4.1Audio: English / LPCM Audio / 2.0 / 48 kHz / 1536 kbps / 16-bitAudio: English / Dolby Digital Audio / 5.1 / 48 kHz / 448 kbps / DN -4dBAudio: English / DTS-HD Master Audio / 5.1 / 48 kHz / 16-bit (DTS Core: 5.1 / 48 kHz / 1509 kbps / 16-bit)Subtitle: English / 0,000 kbpsSubtitle: German / 0,000 kbpsSubtitle: Spanish / 0,000 kbpsSubtitle: French / 0,000 kbps
********************PLAYLIST: 00003.MPLS********************
Код:
Total   Video
Title                                                           Codec   Length  Movie Size      Disc Size       Bitrate Bitrate Main Audio Track                          Secondary Audio Track
-----                                                           ------  ------- --------------  --------------  ------- ------- ------------------                        ---------------------
00003.MPLS                                                      AVC     0:00:21 0               21 330 155 844  0,00    0,00    LPCM 2.0 1536Kbps (48kHz/16-bit)          DD AC3 5.1 448Kbps
Код:
DISC INFO:
Disc Title:     The Moody Blues - Threshold of a Dream Live at the Isle of Wight Festival
Disc Size:      21 330 155 844 bytes
Protection:     AACS
BD-Java:        No
BDInfo:         0.5.6
PLAYLIST REPORT:
Name:                   00003.MPLS
Length:                 0:00:21 (h:m:s)
Size:                   0 bytes
Total Bitrate:          0,00 Mbps
VIDEO:
Codec                   Bitrate             Description
-----                   -------             -----------
MPEG-4 AVC Video        0 kbps              1080i / 29,970 fps / 16:9 / High Profile 4.1
AUDIO:
Codec                           Language        Bitrate         Description
-----                           --------        -------         -----------
LPCM Audio                      English         1536 kbps       2.0 / 48 kHz / 1536 kbps / 16-bit
Dolby Digital Audio             English         448 kbps        5.1 / 48 kHz / 448 kbps / DN -4dB
DTS-HD Master Audio             English         0 kbps          5.1 / 48 kHz / 16-bit (DTS Core: 5.1 / 48 kHz / 1509 kbps / 16-bit)
FILES:
Name            Time In         Length          Size            Total Bitrate
----            -------         ------          ----            -------------
00004.M2TS      0:00:00.000     0:00:10.510     0               0
00006.M2TS      0:00:10.510     0:00:10.510     0               0
CHAPTERS:
Number          Time In         Length          Avg Video Rate  Max 1-Sec Rate  Max 1-Sec Time  Max 5-Sec Rate  Max 5-Sec Time  Max 10Sec Rate  Max 10Sec Time  Avg Frame Size  Max Frame Size  Max Frame Time
------          -------         ------          --------------  --------------  --------------  --------------  --------------  --------------  --------------  --------------  --------------  --------------
1               0:00:00.000     0:00:21.020     0 kbps          0 kbps          00:00:00.000    0 kbps          00:00:00.000    0 kbps          00:00:00.000    0 bytes         0 bytes         00:00:00.000
STREAM DIAGNOSTICS:
File            PID             Type            Codec           Language                Seconds                 Bitrate                 Bytes           Packets
----            ---             ----            -----           --------                --------------          --------------          -------------   -----
00004.M2TS      4113 (0x1011)   0x1B            AVC                                     0                       0                       0               0
00004.M2TS      4352 (0x1100)   0x80            LPCM            eng (English)           0                       0                       0               0
00004.M2TS      4353 (0x1101)   0x81            AC3             eng (English)           0                       0                       0               0
00004.M2TS      4354 (0x1102)   0x86            DTS-HD MA       eng (English)           0                       0                       0               0
00006.M2TS      4113 (0x1011)   0x1B            AVC                                     0                       0                       0               0
00006.M2TS      4352 (0x1100)   0x80            LPCM            eng (English)           0                       0                       0               0
00006.M2TS      4353 (0x1101)   0x81            AC3             eng (English)           0                       0                       0               0
00006.M2TS      4354 (0x1102)   0x86            DTS-HD MA       eng (English)           0                       0                       0               0
QUICK SUMMARY:
Disc Title: The Moody Blues - Threshold of a Dream Live at the Isle of Wight FestivalDisc Size: 21 330 155 844 bytesProtection: AACSBD-Java: NoPlaylist: 00003.MPLSSize: 0 bytesLength: 0:00:21Total Bitrate: 0,00 MbpsVideo: MPEG-4 AVC Video / 0 kbps / 1080i / 29,970 fps / 16:9 / High Profile 4.1Audio: English / LPCM Audio / 2.0 / 48 kHz / 1536 kbps / 16-bitAudio: English / Dolby Digital Audio / 5.1 / 48 kHz / 448 kbps / DN -4dBAudio: English / DTS-HD Master Audio / 5.1 / 48 kHz / 16-bit (DTS Core: 5.1 / 48 kHz / 1509 kbps / 16-bit)
Other forum [Profile] [PM]
Display posts from previous:    
Reply to topic

The time now is: Today 10:58

All times are GMT + 3 Hours



You cannot post new topics in this forum
You cannot reply to topics in this forum
You cannot edit your posts in this forum
You cannot delete your posts in this forum
You cannot vote in polls in this forum
You cannot attach files in this forum
You cannot download files in this forum