Today is a free download without charge Download

Светофор / Сезон 6 / Серия 1 из 20 (Роман Фокин) [2012-2013, Комедийный сериал, SATRip]

Reply to topic
 
Author
Message

Omen ®

Longevity: 9 years

Posts: 181086

Торрент-статистика

Post 19-Feb-2013 04:12

[Quote]

Светофор / Сезон 6 / Серия 1 из 20 Год выпуска: 2012-2013
Производство: Yellow, Black&White
Жанр: Комедийный сериал
Продолжительность: ~ 00:24:00
Режиссёр: Роман Фокин
В ролях: Александр Макогон, Ирина Низина, Джемал Тетруашвили, Ольга Медынич, Дмитрий Миллер, Евгения Каверау, Антонина Комиссарова, Борис Эстрин, Александр Рапопорт, Сергей Рубеко
Описание: История трех друзей детства - Паши, Севы и Эдика. Им слегка за 30. Они мужчины в самом расцвете сил. Один женат, другой занят, третий свободен, как ветер. Герои абсолютно не похожи, но их объединяют дружба и разная, но все же искренняя любовь к женщинам.
Релиз: Giggs
Качество: SATRip
Формат: AVI
Видео кодек: XviD
Аудио кодек: MP3
Видео: 720x384 (1.88:1), 25 fps, XviD build 65 ~1514 kbps avg, 0.22 bit/pixel
Аудио: 48 kHz, MPEG Layer 3, 2 ch, ~128.00 kbps avg-СЭМПЛ-

MI

General
Complete name : D:\svetofor.s06e01.SATRip.avi
Format : AVI
Format/Info : Audio Video Interleave
File size : 287 MiB
Duration : 24mn 15s
Overall bit rate : 1 653 Kbps
Writing application : VirtualDubMod 1.5.10.2 (build 2540/release)
Writing library : VirtualDubMod build 2540/release
Video
ID : 0
Format : MPEG-4 Visual
Format profile : Advanced [email protected]
Format settings, BVOP : 2
Format settings, QPel : No
Format settings, GMC : No warppoints
Format settings, Matrix : Default (MPEG)
Codec ID : XVID
Codec ID/Hint : XviD
Duration : 24mn 15s
Bit rate : 1 515 Kbps
Width : 720 pixels
Height : 384 pixels
Display aspect ratio : 1.85:1
Frame rate : 25.000 fps
Color space : YUV
Chroma subsampling : 4:2:0
Bit depth : 8 bits
Scan type : Progressive
Compression mode : Lossy
Bits/(Pixel*Frame) : 0.219
Stream size : 263 MiB (92%)
Writing library : XviD 65
Audio
ID : 1
Format : MPEG Audio
Format version : Version 1
Format profile : Layer 3
Mode : Joint stereo
Mode extension : MS Stereo
Codec ID : 55
Codec ID/Hint : MP3
Duration : 24mn 15s
Bit rate mode : Constant
Bit rate : 128 Kbps
Channel(s) : 2 channels
Sampling rate : 48.0 KHz
Compression mode : Lossy
Stream size : 22.2 MiB (8%)
Alignment : Aligned on interleaves
Interleave, duration : 40 ms (1.00 video frame)
Interleave, preload duration : 504 ms

Скриншоты

Описание серий

1 (101) серия

-

-

P.S. Раздача ведется путем добавления новых серий.

Внимание! Раздача ведётся путём добавления новых серий. При каждом добавлении создаётся новый торрент. Чтобы начать докачку новой серии, пользователям необходимо сделать следующее:
1. остановить скачивание;
2. удалить старый торрент у себя из клиента (старые серии удалять не надо);
3. скачать новый торрент и запустить его у себя в клиенте вместо старого, при этом указать клиенту путь в старую папку куда и должно происходить скачивание новых серий.
Ваш клиент при этом должен произвести хеширование (проверку) старой папки (если не производит сам - помогите ему сделать это), и будет докачивать только те серии которых у вас ещё нет. Старые серии при этом не удаляются, а продолжают раздаваться!
Eсли вы уже удалили старые серии, то предотвратить повторную закачку старых серий можно, отжав галочку в соответствующих местах при запуске нового торрента.

Как закачать отдельный файл из торрента:

1. Открыть в Torrent-клиенте скачанный торрент-файл
2. Снять галки с тех файлов торрента, которые мы не хотим закачивать. Оставляем только на нужных нам файлах (файле).
3. Нажать Оk.
-Сторонняя реклама отсутствует
Other forum [Profile] [PM]
Display posts from previous:    
Reply to topic

The time now is: Today 18:04

All times are GMT + 3 Hours



You cannot post new topics in this forum
You cannot reply to topics in this forum
You cannot edit your posts in this forum
You cannot delete your posts in this forum
You cannot vote in polls in this forum
You cannot attach files in this forum
You cannot download files in this forum