Today is a free download without charge Download

Римские приключения / To Rome with Love (Вуди Аллен / Woody Allen) [2012, США, Италия, Испания, мелодрама, комедия, BDRip 1080p] Dub (R5) + Original (Ita) + Subs (Eng, Ita)

Reply to topic
 
Author
Message

Omen ®

Longevity: 8 years 5 months

Posts: 181087

Торрент-статистика

Post 19-Feb-2013 00:08

[Quote]

Римские приключения / To Rome with Love Страна: США, Италия, Испания
Студия: Gravier Productions, Mediapro, ...
Жанр: мелодрама, комедия
Год выпуска: 2012
Продолжительность: 01:51:37
Перевод: Профессиональный (дублированный) BD RUS
Cубтитры: английские (SHD - colored), английские (на итальянскую речь), итальянские (SDH)
Оригинальная аудиодорожка: английский
Режиссер: Вуди Аллен / Woody Allen
В ролях: Вуди Аллен, Алек Болдуин, Роберто Бениньи, Пенелопа Крус, Джуди Дэвис, Джесси Айзенберг, Грета Гервиг, Эллен Пейдж, Флавио Паренти, Элисон Пилл
Описание:
Комедия, действие которой происходит в одном из самых прекрасных городов мира. Мы встретим известного американского архитектора, переживающего вторую юность, простого обывателя, неожиданно проснувшегося знаменитым, молодоженов из провинции, каждого из которых ждут романтические открытия, и американского оперного постановщика, задумавшего вывести на сцену поющего работника похоронного бюро…
- -Тип релиза: BDRip 1080p (рип от HDS)
Контейнер: MKV
Видео: AVC (x264), 1920x1040 (16:9) at 23,976 fps, 14600 Кbps, 0.304 bpp
Аудио 1: DTS; 1536 Kbps; CBR; 6 ch; 48 khz; 16 bit | Дубляж |
Аудио 2: DTS; 1536 Kbps; CBR; 6 ch; 48 khz; 24 bit | Английский + Итальянский |
Формат субтитров: softsub (SRT)

Скриншоты || x264 Info || MediaInfo || Notes

Notes:

Цитата:
  • Аудио дорожка №1 взята с To Rome with Love (2012) Blu-ray 1080p AVC DTS-HD 5.1 thx: by crazy_gringo

MediaInfo

Код:
Общее
Уникальный идентификатор                 : 248712544984633361339629740725876500741 (0xBB1C4B3605BB799291FBC48EFC832905)
Полное имя                               : Римские приключения.2012.D.1080p.BluRay.x264-HDS.mkv
Формат                                   : Matroska
Версия формата                           : Version 4 / Version 2
Размер файла                             : 13,7 Гбайт
Продолжительность                        : 1 ч. 51 м.
Общий поток                              : 17,6 Мбит/сек
Название фильма                          : profile.php?mode=viewprofile&u=22488948
Дата кодирования                         : UTC 2013-02-18 09:17:38
Программа кодирования                    : mkvmerge v6.0.0 ('Coming Up For Air') built on Jan 20 2013 09:52:00
Библиотека кодирования                   : libebml v1.3.0 + libmatroska v1.4.0
Видео
Идентификатор                            : 1
Формат                                   : AVC
Формат/Информация                        : Advanced Video Codec
Профиль формата                          : [email protected]
Параметр CABAC формата                   : Да
Параметр ReFrames формата                : 4 кадра
Идентификатор кодека                     : V_MPEG4/ISO/AVC
Продолжительность                        : 1 ч. 51 м.
Битрейт                                  : 14,6 Мбит/сек
Ширина                                   : 1920 пикселей
Высота                                   : 1040 пикселей
Соотношение сторон                       : 16:9
Частота кадров                           : 23,976 кадра/сек
Цветовое пространство                    : YUV
Субдискретизация насыщенности            : 4:2:0
Битовая глубина                          : 8 бит
Тип развёртки                            : Прогрессивная
Бит/(Пиксели*Кадры)                      : 0.304
Размер потока                            : 11,1 Гбайт (81%)
Библиотека кодирования                   : x264 core 129 r2230 1cffe9f
Настройки программы                      : cabac=1 / ref=4 / deblock=1:-3:-3 / analyse=0x3:0x113 / me=umh / subme=10 / psy=1 / psy_rd=1.20:0.00 / mixed_ref=1 / me_range=32 / chroma_me=1 / trellis=2 / 8x8dct=1 / cqm=0 / deadzone=21,11 / fast_pskip=0 / chroma_qp_offset=-2 / threads=12 / lookahead_threads=2 / sliced_threads=0 / nr=0 / decimate=1 / interlaced=0 / bluray_compat=0 / constrained_intra=0 / bframes=9 / b_pyramid=2 / b_adapt=2 / b_bias=0 / direct=3 / weightb=1 / open_gop=0 / weightp=2 / keyint=250 / keyint_min=23 / scenecut=40 / intra_refresh=0 / rc=2pass / mbtree=0 / bitrate=14550 / ratetol=1.0 / qcomp=0.60 / qpmin=0 / qpmax=69 / qpstep=4 / cplxblur=20.0 / qblur=0.5 / ip_ratio=1.40 / pb_ratio=1.30 / aq=1:1.10
Язык                                     : English
Default                                  : Да
Forced                                   : Нет
Аудио #1
Идентификатор                            : 2
Формат                                   : DTS
Формат/Информация                        : Digital Theater Systems
Идентификатор кодека                     : A_DTS
Продолжительность                        : 1 ч. 51 м.
Вид битрейта                             : Постоянный
Битрейт                                  : 1510 Кбит/сек
Каналы                                   : 6 каналов
Расположение каналов                     : Front: L C R, Side: L R, LFE
Частота                                  : 48,0 КГц
Битовая глубина                          : 16 бит
Метод сжатия                             : С потерями
Размер потока                            : 1,18 Гбайт (9%)
Заголовок                                : D [bDrUS]
Язык                                     : Russian
Default                                  : Да
Forced                                   : Нет
Аудио #2
Идентификатор                            : 3
Формат                                   : DTS
Формат/Информация                        : Digital Theater Systems
Идентификатор кодека                     : A_DTS
Продолжительность                        : 1 ч. 51 м.
Вид битрейта                             : Постоянный
Битрейт                                  : 1510 Кбит/сек
Каналы                                   : 6 каналов
Расположение каналов                     : Front: L C R, Side: L R, LFE
Частота                                  : 48,0 КГц
Битовая глубина                          : 24 бит
Метод сжатия                             : С потерями
Размер потока                            : 1,18 Гбайт (9%)
Заголовок                                : eng + ita
Язык                                     : English
Default                                  : Нет
Forced                                   : Нет
Текст #1
Идентификатор                            : 4
Формат                                   : UTF-8
Идентификатор кодека                     : S_TEXT/UTF8
Идентификатор кодека/Информация          : UTF-8 Plain Text
Заголовок                                : full + ita parts - colored (SDH)
Язык                                     : English
Default                                  : Нет
Forced                                   : Нет
Текст #2
Идентификатор                            : 5
Формат                                   : UTF-8
Идентификатор кодека                     : S_TEXT/UTF8
Идентификатор кодека/Информация          : UTF-8 Plain Text
Заголовок                                : eng for ita parts
Язык                                     : English
Default                                  : Нет
Forced                                   : Нет
Текст #3
Идентификатор                            : 6
Формат                                   : UTF-8
Идентификатор кодека                     : S_TEXT/UTF8
Идентификатор кодека/Информация          : UTF-8 Plain Text
Заголовок                                : SDH
Язык                                     : Italian
Default                                  : Нет
Forced                                   : Нет
Меню
00:00:00.000                             : en:00:00:00.000
00:09:02.417                             : en:00:09:02.417
00:19:22.661                             : en:00:19:22.661
00:30:19.192                             : en:00:30:19.192
00:40:34.223                             : en:00:40:34.223
00:50:48.170                             : en:00:50:48.170
01:01:01.950                             : en:01:01:01.950
01:13:06.215                             : en:01:13:06.215
01:21:30.719                             : en:01:21:30.719
01:34:43.970                             : en:01:34:43.970

x264 Info

x264 [info]: frame I:914 Avg QP:12.39 size:187803
x264 [info]: frame P:34017 Avg QP:14.63 size: 81136
x264 [info]: frame B:87752 Avg QP:15.73 size: 35717

Source vs Encode

HDS........vs......HDChina

Other forum [Profile] [PM]
Display posts from previous:    
Reply to topic

The time now is: Today 02:38

All times are GMT + 3 Hours



You cannot post new topics in this forum
You cannot reply to topics in this forum
You cannot edit your posts in this forum
You cannot delete your posts in this forum
You cannot vote in polls in this forum
You cannot attach files in this forum
You cannot download files in this forum