Today is a free download without charge Download

Свидетельство / Evidence (Хоуи Эскинс / Howie Askins) [2011, США, ужасы, BDRip 720p] Dub (ViruseProject) + VO (WOLRONE) + Original (Eng) + Sub (Rus)

Reply to topic
 
Author
Message

Omen ®

Longevity: 8 years 5 months

Posts: 181087

Торрент-статистика

Post 19-Feb-2013 00:08

[Quote]

Свидетельство / Evidence Страна: США
Студия: RynoRyder Productions Inc.
Жанр: ужасы
Год выпуска: 2011
Продолжительность: 01:18:40
Перевод:
  • Любительский (дублированный) ViruseProject
  • Одноголосый закадровый WOLRONE
Cубтитры: русские (requiem)
Оригинальная аудиодорожка: английский
Режиссер: Хоуи Эскинс / Howie Askins
В ролях: Райан МакКой, Бретт Джей Розенберг, Эбигейл Ричи, Эшли Брэкен, Зак Фэйхи, Блейн Грэй, Кейт Льюис, Рисдон Робертс
Описание:
Группа молодых людей отправляется в лес, где один из них, Райан, намерен снять документальный фильм об их поездке. Устроив небольшой лагерь посреди лесной чащи, скоро герои фильма делают открытие, которое положит конец безмятежному отдыху.
Поначалу их привлекают странный шум, который вскоре материализуется в некое существо, имеющее, как выясняется, далеко не мирные намерения в отношении компании друзей. Фильм, который они пытались снимать, в итоге станет единственным свидетельством того, что же произошло на самом деле…
- || || -Тип релиза: BDRip 720p (рип от MySilu)
Контейнер: MKV
Видео: AVC (x264), 1280x720 (16:9) at 23,976 fps, 5773 Кbps, 0.261 bpp
Аудио 1: AC3; 448 Kbps; CBR; 6 ch; 48 khz | Дубляж - ViruseProject |
Аудио 2: DTS; 1536 Kbps; CBR; 6 ch; 48 khz; 24 bit | VO - WOLRONE |
Аудио 3: DTS; 1536 Kbps; CBR; 6 ch; 48 khz; 24 bit | Английский |
Формат субтитров: softsub (SRT)

Скриншоты || x264 Info || MediaInfo || Notes

Notes:

Цитата:
  • Аудио дорожка №1, 2, главы, русские субтитры взяты с этой раздачи, thx: arxivariys
  • В русских субтитрах исправлены мелкие ошибки.

MediaInfo

Код:
Общее
Уникальный идентификатор                 : 171310421900472304778338485582368765429 (0x80E12FE7E83E49D88B5B9012CE9675F5)
Полное имя                               : Свидетельство.2011.D.720p.BluRay.x264-MySilu.mkv
Формат                                   : Matroska
Версия формата                           : Version 4 / Version 2
Размер файла                             : 5,08 Гбайт
Продолжительность                        : 1 ч. 18 м.
Общий поток                              : 9243 Кбит/сек
Название фильма                          : profile.php?mode=viewprofile&u=22488948
Дата кодирования                         : UTC 2013-02-17 08:19:47
Программа кодирования                    : mkvmerge v6.0.0 ('Coming Up For Air') built on Jan 20 2013 09:52:00
Библиотека кодирования                   : libebml v1.3.0 + libmatroska v1.4.0
Видео
Идентификатор                            : 1
Формат                                   : AVC
Формат/Информация                        : Advanced Video Codec
Профиль формата                          : [email protected]
Параметр CABAC формата                   : Да
Параметр ReFrames формата                : 8 кадров
Идентификатор кодека                     : V_MPEG4/ISO/AVC
Продолжительность                        : 1 ч. 18 м.
Битрейт                                  : 5773 Кбит/сек
Ширина                                   : 1280 пикселей
Высота                                   : 720 пикселей
Соотношение сторон                       : 16:9
Частота кадров                           : 23,976 кадра/сек
Цветовое пространство                    : YUV
Субдискретизация насыщенности            : 4:2:0
Битовая глубина                          : 8 бит
Тип развёртки                            : Прогрессивная
Бит/(Пиксели*Кадры)                      : 0.261
Размер потока                            : 3,07 Гбайт (60%)
Библиотека кодирования                   : x264 core 129 r2245 bc13772
Настройки программы                      : cabac=1 / ref=8 / deblock=1:-2:-2 / analyse=0x3:0x133 / me=umh / subme=9 / psy=1 / psy_rd=1.20:0.20 / mixed_ref=1 / me_range=16 / chroma_me=1 / trellis=2 / 8x8dct=1 / cqm=0 / deadzone=21,11 / fast_pskip=1 / chroma_qp_offset=-3 / threads=9 / lookahead_threads=1 / sliced_threads=0 / nr=0 / decimate=0 / interlaced=0 / bluray_compat=0 / constrained_intra=0 / bframes=3 / b_pyramid=2 / b_adapt=2 / b_bias=0 / direct=3 / weightb=1 / open_gop=0 / weightp=2 / keyint=240 / keyint_min=1 / scenecut=40 / intra_refresh=0 / rc_lookahead=60 / rc=2pass / mbtree=0 / bitrate=5773 / ratetol=1.0 / qcomp=0.60 / qpmin=10 / qpmax=51 / qpstep=4 / cplxblur=20.0 / qblur=0.5 / vbv_maxrate=38000 / vbv_bufsize=38000 / nal_hrd=none / ip_ratio=1.40 / pb_ratio=1.30 / aq=1:1.00
Язык                                     : English
Default                                  : Да
Forced                                   : Нет
Аудио #1
Идентификатор                            : 2
Формат                                   : AC-3
Формат/Информация                        : Audio Coding 3
Расширение режима                        : CM (complete main)
Идентификатор кодека                     : A_AC3
Продолжительность                        : 1 ч. 18 м.
Вид битрейта                             : Постоянный
Битрейт                                  : 448 Кбит/сек
Каналы                                   : 6 каналов
Расположение каналов                     : Front: L C R, Side: L R, LFE
Частота                                  : 48,0 КГц
Битовая глубина                          : 16 бит
Метод сжатия                             : С потерями
Размер потока                            : 252 Мбайт (5%)
Заголовок                                : D [ViruseProject]
Язык                                     : Russian
Default                                  : Да
Forced                                   : Нет
Аудио #2
Идентификатор                            : 3
Формат                                   : DTS
Формат/Информация                        : Digital Theater Systems
Идентификатор кодека                     : A_DTS
Продолжительность                        : 1 ч. 18 м.
Вид битрейта                             : Постоянный
Битрейт                                  : 1510 Кбит/сек
Каналы                                   : 6 каналов
Расположение каналов                     : Front: L C R, Side: L R, LFE
Частота                                  : 48,0 КГц
Битовая глубина                          : 24 бит
Метод сжатия                             : С потерями
Размер потока                            : 850 Мбайт (16%)
Заголовок                                : VO [WOLRONE]
Язык                                     : Russian
Default                                  : Нет
Forced                                   : Нет
Аудио #3
Идентификатор                            : 4
Формат                                   : DTS
Формат/Информация                        : Digital Theater Systems
Идентификатор кодека                     : A_DTS
Продолжительность                        : 1 ч. 18 м.
Вид битрейта                             : Постоянный
Битрейт                                  : 1510 Кбит/сек
Каналы                                   : 6 каналов
Расположение каналов                     : Front: L C R, Side: L R, LFE
Частота                                  : 48,0 КГц
Битовая глубина                          : 24 бит
Метод сжатия                             : С потерями
Размер потока                            : 850 Мбайт (16%)
Язык                                     : English
Default                                  : Нет
Forced                                   : Нет
Текст
Идентификатор                            : 5
Формат                                   : UTF-8
Идентификатор кодека                     : S_TEXT/UTF8
Идентификатор кодека/Информация          : UTF-8 Plain Text
Заголовок                                : [requiem]
Язык                                     : Russian
Default                                  : Нет
Forced                                   : Нет
Меню
00:00:04.838                             : :Chapter 01
00:06:44.404                             : :Chapter 02
00:14:40.880                             : :Chapter 03
00:23:55.434                             : :Chapter 04
00:34:47.085                             : :Chapter 05
00:44:38.676                             : :Chapter 06
00:52:53.170                             : :Chapter 07
00:58:33.510                             : :Chapter 08
01:02:13.730                             : :Chapter 09
01:05:48.945                             : :Chapter 10
01:11:06.262                             : :Chapter 11
01:14:00.436                             : :Chapter 12

x264 Info

x264 [info]: frame I:740 Avg QP:17.46 size: 76772
x264 [info]: frame P:44554 Avg QP:19.51 size: 42373
x264 [info]: frame B:67890 Avg QP:20.85 size: 21534

Source vs Encode

MySilu......vs......SONiDO (scene)

Other forum [Profile] [PM]
Display posts from previous:    
Reply to topic

The time now is: Today 09:29

All times are GMT + 3 Hours



You cannot post new topics in this forum
You cannot reply to topics in this forum
You cannot edit your posts in this forum
You cannot delete your posts in this forum
You cannot vote in polls in this forum
You cannot attach files in this forum
You cannot download files in this forum