Today is a free download without charge Download

Покорители волн / Chasing Mavericks (Майкл Эптед / Michael Apted, Кёртис Хэнсон / Curtis Hanson) [2012, США, драма, спорт, BDRip 720p] Dub + Sub Rus, Eng + Original Eng

Reply to topic
 
Author
Message

Omen ®

Longevity: 8 years 5 months

Posts: 181087

Торрент-статистика

Post 19-Feb-2013 00:08

[Quote]

Покорители волн / Chasing Mavericks
Страна: США
Жанр: драма, спорт
Год выпуска: 2012
Продолжительность: 01:56:30
Перевод: Профессиональный (дублированный)
Cубтитры: русские, английские
Оригинальная аудиодорожка: английский
Режиссер: Майкл Эптед / Michael Apted, Кёртис Хэнсон / Curtis Hanson
В ролях: Джерард Батлер, Джонни Уэстон, Элизабет Шу, Эбигейл Спенсер, Ливэн Рамбин, Грег Лонг, Питер Мэл, Зэк Уормхудт, Девин Криттенден, Тейлор Хэндли, Купер Тимберлайн, Майя Рэйнс
Описание: Серфинг - спорт королей. Не каждый сможет справиться с огромными волнами у побережья Калифорнии. Их называют Мавериками, они достигают 25 метров в высоту. Хессон не раз покорял стихию, но не раскрыл своего секрета никому. Он дал обещание любимой женщине - больше не рисковать жизнью. Но смелость юного Джея подкупила Хессона. Смогут ли они, глядя смерти в лицо, удержаться на гребне волны?
Сэмпл: http://multi-up.com/832829
сравнение с WEB-DL 720p http://screenshotcomparison.com/comparison/8699
Тип релиза: BDRip 720p
Контейнер: MKV
Видео: AVC, 5 199 Kbps, 1280 x 696, 23.976 fps
Аудио 1: AC3, 448 Kbps, 6 channels, 48.0 KHz - дубляж
Аудио 2: DTS, 1 509 Kbps, 6 channels, 48.0 KHz
Формат субтитров: softsub (SRT)

MediaInfo

General
Unique ID : 205710152347027475489167158279713058981 (0x9AC2558FE5E6D4AFB16FD9211F73F0A5)
Complete name : E:\HDVideo\chasing.mavericks.2012.720p.BDRip.rus.eng.sub.mkv
Format : Matroska
Format version : Version 4 / Version 2
File size : 5.82 GiB
Duration : 1h 56mn
Overall bit rate : 7 157 Kbps
Encoded date : UTC 2013-02-18 12:17:51
Writing application : mkvmerge v6.0.0 ('Coming Up For Air') built on Jan 20 2013 09:52:00
Writing library : libebml v1.3.0 + libmatroska v1.4.0
Video
ID : 1
Format : AVC
Format/Info : Advanced Video Codec
Format profile : [email protected]
Format settings, CABAC : Yes
Format settings, ReFrames : 5 frames
Codec ID : V_MPEG4/ISO/AVC
Duration : 1h 56mn
Bit rate : 5 199 Kbps
Width : 1 280 pixels
Height : 696 pixels
Display aspect ratio : 1.85:1
Frame rate mode : Constant
Frame rate : 23.976 fps
Color space : YUV
Chroma subsampling : 4:2:0
Bit depth : 8 bits
Scan type : Progressive
Bits/(Pixel*Frame) : 0.243
Stream size : 4.12 GiB (71%)
Writing library : x264 core 129 r2245 bc13772
Encoding settings : cabac=1 / ref=5 / deblock=1:0:0 / analyse=0x3:0x133 / me=umh / subme=7 / psy=1 / psy_rd=1.00:0.00 / mixed_ref=1 / me_range=16 / chroma_me=1 / trellis=1 / 8x8dct=1 / cqm=0 / deadzone=21,11 / fast_pskip=0 / chroma_qp_offset=-2 / threads=36 / lookahead_threads=6 / sliced_threads=0 / nr=0 / decimate=1 / interlaced=0 / bluray_compat=0 / constrained_intra=0 / bframes=3 / b_pyramid=2 / b_adapt=1 / b_bias=0 / direct=1 / weightb=1 / open_gop=0 / weightp=2 / keyint=250 / keyint_min=23 / scenecut=40 / intra_refresh=0 / rc_lookahead=40 / rc=2pass / mbtree=1 / bitrate=5199 / ratetol=1.0 / qcomp=0.60 / qpmin=0 / qpmax=69 / qpstep=4 / cplxblur=20.0 / qblur=0.5 / ip_ratio=1.40 / aq=1:1.00
Language : English
Default : Yes
Forced : No
Audio #1
ID : 2
Format : AC-3
Format/Info : Audio Coding 3
Mode extension : CM (complete main)
Format settings, Endianness : Big
Codec ID : A_AC3
Duration : 1h 56mn
Bit rate mode : Constant
Bit rate : 448 Kbps
Channel(s) : 6 channels
Channel positions : Front: L C R, Side: L R, LFE
Sampling rate : 48.0 KHz
Bit depth : 16 bits
Compression mode : Lossy
Stream size : 373 MiB (6%)
Title : бубляж
Language : Russian
Default : Yes
Forced : No
Audio #2
ID : 3
Format : DTS
Format/Info : Digital Theater Systems
Format profile : ES
Mode : 16
Format settings, Endianness : Big
Codec ID : A_DTS
Duration : 1h 56mn
Bit rate mode : Constant
Bit rate : 1 509 Kbps
Channel(s) : 6 channels
Channel positions : Front: L C R, Side: L R, LFE
Sampling rate : 48.0 KHz
Bit depth : 24 bits
Compression mode : Lossy
Stream size : 1.23 GiB (21%)
Language : English
Default : No
Forced : No
Text #1
ID : 4
Format : UTF-8
Codec ID : S_TEXT/UTF8
Codec ID/Info : UTF-8 Plain Text
Language : Russian
Default : No
Forced : No
Text #2
ID : 5
Format : UTF-8
Codec ID : S_TEXT/UTF8
Codec ID/Info : UTF-8 Plain Text
Language : English
Default : No
Forced : No
Menu
00:00:00.000 : en:00:00:00.000
00:04:43.366 : en:00:04:43.366
00:08:35.348 : en:00:08:35.348
00:12:48.685 : en:00:12:48.685
00:17:09.028 : en:00:17:09.028
00:22:04.198 : en:00:22:04.198
00:28:15.485 : en:00:28:15.485
00:34:08.463 : en:00:34:08.463
00:38:34.771 : en:00:38:34.771
00:41:36.452 : en:00:41:36.452
00:44:13.693 : en:00:44:13.693
00:48:46.966 : en:00:48:46.966
00:52:18.510 : en:00:52:18.510
00:58:32.926 : en:00:58:32.926
01:00:36.550 : en:01:00:36.550
01:04:33.536 : en:01:04:33.536
01:07:56.864 : en:01:07:56.864
01:12:04.445 : en:01:12:04.445
01:15:16.721 : en:01:15:16.721
01:19:06.867 : en:01:19:06.867
01:23:13.405 : en:01:23:13.405
01:27:31.121 : en:01:27:31.121
01:31:22.185 : en:01:31:22.185
01:35:52.538 : en:01:35:52.538
01:39:34.135 : en:01:39:34.135
01:44:28.012 : en:01:44:28.012
01:49:12.171 : en:01:49:12.171
01:50:18.487 : en:01:50:18.487
Other forum [Profile] [PM]
Similar theme
Forum Topic Author Torrent Replies Last Post
./templates/default/images/folder_dl.gif Фантастика, фэнтези, ужасы, мистика Анна Гаврилова | Покорение Огня (2015) [FB2] Omen
1 | 0

0 | 1034

3

2015-07-13 19:08
Omen Latest
Display posts from previous:    
Reply to topic

The time now is: Today 12:24

All times are GMT + 3 Hours



You cannot post new topics in this forum
You cannot reply to topics in this forum
You cannot edit your posts in this forum
You cannot delete your posts in this forum
You cannot vote in polls in this forum
You cannot attach files in this forum
You cannot download files in this forum