Today is a free download without charge Download

Покорители волн / Chasing Mavericks (Майкл Эптед, Кёртис Хэнсон / Michael Apted, Curtis Hanson) [2012, США, драма, спорт, BDRemux 1080p] Dub + Sub Rus, Eng + Original Eng

Reply to topic
 
Author
Message

Omen ®

Longevity: 8 years 5 months

Posts: 181087

Торрент-статистика

Post 19-Feb-2013 00:08

[Quote]

Покорители волн / Chasing Mavericks Страна:США
Студия: Fox 2000 Pictures, Walden Media
Жанр: драма, спорт
Год выпуска: 2012
Продолжительность: 01:56:30
Перевод: Профессиональный (дублированный)
Cубтитры: русские,английские
Оригинальная аудиодорожка: английский
Режиссер: Майкл Эптед, Кёртис Хэнсон / Michael Apted, Curtis Hanson
В ролях: Джерард Батлер, Ливэн Рамбин, Элизабет Шу, Эбигейл Спенсер, Скотт Иствуд, Тейлор Хэндли, Джонни Уэстон, Александр Канеллакос, Дженика Бергер, Чэннон Роу, Купер Тимберлайн, Харли Грэхэм, Стивен Уиг, Кигэн Боос, Девин Криттенден, Энди Арнесс, Ричард Гросс, Сэмми Эллиотт, Мэттью Бингхэм, Майя Рэйнс, Джеймс Энтони Коттон, Дианна Маркс, Майк Ховард, Майкл Акоста, Этьен Вик, Питер Мэл, Марк Лавелл, Кристофер Суини, Монтгомери Полсен, Дерек В. Адам, Хоакин Кано
Описание: Серфинг — спорт королей. Не каждый сможет справиться с огромными волнами у побережья Калифорнии. Их называют Мавериксами, они достигают 25 метров в высоту. Хессон не раз покорял стихию, но не раскрыл своего секрета никому. Он дал обещание любимой женщине — больше не рисковать жизнью. Но смелость юного Джей подкупила Хессона. Смогут ли они, глядя смерти в лицо, удержаться на гребне волны?

Тип релиза: BDRemux 1080p
Контейнер: MKV
Видео: AVC,1920x1080, 29627 kbps, 23.976 fps
Аудио 1: Russian: 48 kHz, AC3, 3/2 (L,C,R,l,r) + LFE ch, ~448.00 kbps avg |Дубляж, R5|
Аудио 2: English:48 kHz/24-bit, DTS-HD MA 7.1, ~4974.00 kbps avg (DTS Core: 5.1 / 48 kHz / 1509 kbps / 24-bit) |Original|
Чаптеры:есть

MediaInfo

General
Unique ID : 250262242013751644291088991425551861796 (0xBC46C12C711524B2908C16B5CC3F0824)
Complete name : D:\Рипы\Chasing.Mavericks.2012.1080p Blu-ray-Remux AVC DTS-HD MA 7.1.mkv
Format : Matroska
Format version : Version 2
File size : 28.5 GiB
Duration : 1h 56mn
Overall bit rate mode : Variable
Overall bit rate : 35.1 Mbps
Movie name : -Talian-
Encoded date : UTC 2013-02-18 17:41:17
Writing application : mkvmerge v5.7.0 ('The Whirlwind') built on Jul 8 2012 20:08:51
Writing library : libebml v1.2.3 + libmatroska v1.3.0
Video
ID : 1
Format : AVC
Format/Info : Advanced Video Codec
Format profile : [email protected]
Format settings, CABAC : Yes
Format settings, ReFrames : 2 frames
Codec ID : V_MPEG4/ISO/AVC
Duration : 1h 56mn
Bit rate mode : Variable
Bit rate : 32.3 Mbps
Width : 1 920 pixels
Height : 1 080 pixels
Display aspect ratio : 16:9
Frame rate : 23.976 fps
Color space : YUV
Chroma subsampling : 4:2:0
Bit depth : 8 bits
Scan type : Progressive
Bits/(Pixel*Frame) : 0.650
Stream size : 26.3 GiB (92%)
Title : Remux
Language : English
Default : No
Forced : No
Audio #1
ID : 2
Format : AC-3
Format/Info : Audio Coding 3
Mode extension : CM (complete main)
Format settings, Endianness : Big
Codec ID : A_AC3
Duration : 1h 56mn
Bit rate mode : Constant
Bit rate : 448 Kbps
Channel(s) : 6 channels
Channel positions : Front: L C R, Side: L R, LFE
Sampling rate : 48.0 KHz
Bit depth : 16 bits
Compression mode : Lossy
Stream size : 373 MiB (1%)
Title : DUB-R5
Language : Russian
Default : Yes
Forced : No
Audio #2
ID : 3
Format : DTS
Format/Info : Digital Theater Systems
Format profile : MA / Core
Codec ID : A_DTS
Duration : 1h 56mn
Bit rate mode : Variable
Bit rate : 1 597 Kbps / 1 510 Kbps
Channel(s) : 8 channels / 6 channels
Channel positions : Front: L C R, Side: L R, Back: L R, LFE / Front: L C R, Side: L R, LFE
Sampling rate : 48.0 KHz
Bit depth : 24 bits
Compression mode : Lossless / Lossy
Title : Original
Language : English
Default : No
Forced : No
Text #1
ID : 4
Format : UTF-8
Codec ID : S_TEXT/UTF8
Codec ID/Info : UTF-8 Plain Text
Title : Sub
Language : Russian
Default : No
Forced : No
Text #2
ID : 5
Format : UTF-8
Codec ID : S_TEXT/UTF8
Codec ID/Info : UTF-8 Plain Text
Title : Sub
Language : English
Default : No
Forced : No
Menu
00:00:00.000 : 00:00:00.000
00:05:13.146 : 00:05:13.146
00:07:44.881 : 00:07:44.881
00:11:31.524 : 00:11:31.524
00:15:09.784 : 00:15:09.784
00:20:04.912 : 00:20:04.912
00:22:32.810 : 00:22:32.810
00:27:43.120 : 00:27:43.120
00:31:57.833 : 00:31:57.833
00:34:10.840 : 00:34:10.840
00:37:53.229 : 00:37:53.229
00:40:45.360 : 00:40:45.360
00:45:49.330 : 00:45:49.330
00:48:47.925 : 00:48:47.925
00:50:23.062 : 00:50:23.062
00:53:56.400 : 00:53:56.400
00:56:32.222 : 00:56:32.222
00:59:31.610 : 00:59:31.610
01:01:29.185 : 01:01:29.185
01:04:17.562 : 01:04:17.562
01:06:01.457 : 01:06:01.457
01:08:57.884 : 01:08:57.884
01:11:13.519 : 01:11:13.519
01:15:10.631 : 01:15:10.631
01:17:06.038 : 01:17:06.038
01:25:02.306 : 01:25:02.306
01:27:09.349 : 01:27:09.349
01:30:10.363 : 01:30:10.363
01:32:43.725 : 01:32:43.725
01:35:23.134 : 01:35:23.134
01:37:46.861 : 01:37:46.861
01:40:46.374 : 01:40:46.374
01:43:46.220 : 01:43:46.220
01:48:28.794 : 01:48:28.794
01:52:08.096 : 01:52:08.096

Скриншоты



Other forum [Profile] [PM]

Dracula

Longevity: 7 years 5 months

Posts: 11215

Торрент-статистика

Post 21-Feb-2013 12:07 (after 2 days 11 hours)

Топик был перенесен из форума Зарубежное кино (HD Video) в форум Зарубежное кино


Delia
 
Similar theme
Forum Topic Author Torrent Replies Last Post
./templates/default/images/folder_dl.gif Фантастика, фэнтези, ужасы, мистика Анна Гаврилова | Покорение Огня (2015) [FB2] Omen
1 | 0

0 | 1035

3

2015-07-13 19:08
Omen Latest
Display posts from previous:    
Reply to topic

The time now is: Today 12:48

All times are GMT + 3 Hours



You cannot post new topics in this forum
You cannot reply to topics in this forum
You cannot edit your posts in this forum
You cannot delete your posts in this forum
You cannot vote in polls in this forum
You cannot attach files in this forum
You cannot download files in this forum