Today is a free download without charge Download

Черный Дрозд / Deadfall (Штефан Руцовицки) ]2012.., США, Триллер, Драма, Криминал, DVD5]

Reply to topic
 
Author
Message

Meshanik ®

Gender:

Longevity: 8 years 10 months

Posts: 3866

Location: Los Angeles

Торрент-статистика

Post 18-Feb-2013 20:52

[Quote]

Черный Дрозд / Deadfall- Русское название: Черный Дрозд
Оригинальное название: Deadfall
Год выпуска: 2012
Производство: США
Жанр: Триллер, Драма, Криминал
Продолжительность: 01:30:41
Перевод: Дублированный (Лицензия)
Субтитры: Отсутствуют-Режиссер: Штефан Руцовицки
В ролях: Эрик Бана, Оливия Уайлд, Чарли Ханнэм, Сисси Спейсек, Крис Кристофферсон, Джейсон Кавалье, Кевин Десфоссес, Ален Голем, Эллисон Грэхэм, Патрик Кертон-Описание фильма:
Эддисон и Лайза в бегах после неудачного ограбления казино. Бывший боксер Джей направляется домой, чтобы провести День Благодарения в кругу семьи. Судьба неумолимо сводит этих людей, чтобы они встретили Зло и вступили в схватку с ним.- -Дата мировой премьеры: 22 апреля 2012
Дата российской премьеры: 13 декабря 2012, «Top Film Distribution»-Качество видео: DVD5
Видеокодек: MPEG-2
Битрейт видео: ~5551 kbps
Размер кадра: PAL 16:9 ([email protected]х576)
Аудио: AC3, 6 ch, 448 kbps (Дублированный, Русский)
-

Доп. материалы:

Отсутствуют

MediaInfo:

Общее
Полное имя : Deadfall.2012.D.DVD5\VIDEO_TS\VTS_01_1.VOB
Формат : MPEG-PS
Размер файла : 1024 Мбайт
Продолжительность : 23 м.
Режим общего битрейта : Переменный
Общий поток : 6121 Кбит/сек
Видео
Идентификатор : 224 (0xE0)
Формат : MPEG Video
Версия формата : Version 2
Профиль формата : [email protected]
Параметр BVOP формата : Да
Параметр матрицы формата : Выборочная
Продолжительность : 23 м.
Вид битрейта : Переменный
Битрейт : 5551 Кбит/сек
Максимальный битрейт : 8000 Кбит/сек
Ширина : 720 пикселей
Высота : 576 пикселей
Соотношение сторон : 16:9
Частота кадров : 25,000 кадров/сек
Стандарт вещания : PAL
Цветовое пространство : YUV
Субдискретизация насыщенности : 4:2:0
Битовая глубина : 8 бит
Тип развёртки : Чересстрочная
Порядок развёртки : Верхнее поле первое
Метод сжатия : С потерями
Бит/(Пиксели*Кадры) : 0.535
Размер потока : 929 Мбайт (91%)
Аудио
Идентификатор : 189 (0xBD)-128 (0x80)
Формат : AC-3
Формат/Информация : Audio Coding 3
Расширение режима : CM (complete main)
Режим смешивания : DVD-Video
Продолжительность : 23 м.
Вид битрейта : Постоянный
Битрейт : 448 Кбит/сек
Каналы : 6 каналов
Расположение каналов : Front: L C R, Side: L R, LFE
Частота : 48,0 КГц
Битовая глубина : 16 бит
Метод сжатия : С потерями
Размер потока : 74,9 Мбайт (7%)
Меню

DVDInfo:

Title: Deadfall.2012.D.DVD5
Size: 3.63 Gb ( 3 802 842,00 KBytes ) - DVD-5
Enabled regions: 1, 2, 3, 4, 5, 6, 7, 8
VTS_01 :
Play Length: 01:30:41
Video: PAL 16:9 (720x576) VBR, Auto Letterboxed
Audio:
Russian (Dolby AC3, 6 ch)
VTS_02 :
Play Length: 00:00:08
Video: PAL 4:3 (720x576) VBR
VTS_03 :
Play Length: 00:00:21
Video: PAL 16:9 (720x576) VBR, Auto Letterboxed
Audio:
English (Dolby AC3, 2 ch)
* Menus Information *
VIDEO_TS Menu
Video:
PAL 16:9 (720x576) VBR
Auto Letterboxed
Audio:
Not specified (Dolby AC3, 2 ch)
Russian Language Unit :
Title Menu
VTS_01 Menu
Video:
PAL 16:9 (720x576) VBR
Auto Letterboxed
Audio:
Not specified (Dolby AC3, 2 ch)
Russian Language Unit :
Root Menu
Chapter (PTT) Menu
VTS_02 Menu
Video:
NTSC 4:3 (720x480) VBR
Auto Pan&Scan, Auto Letterboxed
Language Unit :
Chapter (PTT) Menu
VTS_03 Menu
Video:
NTSC 4:3 (720x480) VBR
Auto Pan&Scan, Auto Letterboxed
Language Unit :
Chapter (PTT) Menu

Меню DVD:

     

Скриншоты:

       
       
Other forum [Profile] [PM]
Display posts from previous:    
Reply to topic

The time now is: Today 01:30

All times are GMT + 3 Hours



You cannot post new topics in this forum
You cannot reply to topics in this forum
You cannot edit your posts in this forum
You cannot delete your posts in this forum
You cannot vote in polls in this forum
You cannot attach files in this forum
You cannot download files in this forum