Today is a free download without charge Download

(Hard Rock) Scorpions - Gold Ballads [ Holand CDP 538-7 91015 2 ] - 1985, APE (image+.cue), lossless

Reply to topic
 
Author
Message

Omen ®

Longevity: 8 years 8 months

Posts: 181087

Торрент-статистика

Post 18-Feb-2013 20:04

[Quote]

Scorpions / Gold Ballads [ Holand CDP 538-7 91015 2 ]- Жанр: Hard Rock
Страна-производитель диска: Holand
Год издания: 1985
Издатель (лейбл): Breeze Music
Номер по каталогу: CDP 538-7 91015 2
Страна: Germany
Аудиокодек: APE (*.ape)
Тип рипа: image+.cue
Битрейт аудио: lossless
Продолжительность: 00:28:20
Источник (релизер): Рип найден в сети
Наличие сканов в содержимом раздачи: да
Треклист:
01. Still Loving You (6:30)
02. Holiday (6:34)
03. When The Smoke Is Going Down (3:54)
04. Always Somewhere (4:59)
05. Lady Starlight (6:12)

Лог создания рипа

Exact Audio Copy V0.99 prebeta 4 from 23. January 2008
Отчёт EAC об извлечении, выполненном 4. февраля 2009, 19:37
Scorpions / Gold Ballads
Дисковод: Optiarc DVD RW AD-7190A Adapter: 1 ID: 0
Режим чтения : ДостоверностьИспользование точного потока : ДаОтключение кэша аудио : ДаИспользование указателей C2 : Нет
Коррекция смещения при чтении : 48Способность читать области Lead-in и Lead-out : НетЗаполнение пропущенных сэмплов тишиной : ДаУдаление блоков с тишиной в начале и конце : НетПри вычислениях CRC использовались нулевые сэмплы : ДаИнтерфейс : Встроенный Win32-интерфейс для Win NT/2000
Выходной формат : Внутренние WAV-операцииФормат сэмплов : 44.100 Гц; 16 бит; стерео
TOC извлечённого CD
Трек | Старт | Длительность | Начальный сектор | Конечный сектор --------------------------------------------------------------------- 1 | 0:00.32 | 6:30.73 | 32 | 29354 2 | 6:31.30 | 6:37.62 | 29355 | 59191 3 | 13:09.17 | 3:53.73 | 59192 | 76739 4 | 17:03.15 | 5:00.67 | 76740 | 99306 5 | 22:04.07 | 6:16.63 | 99307 | 127569
Характеристики диапазона извлечения и сообщения об ошибках
Выбранный диапазон
Имя файла C:\Users\AvenGer\Desktop\Scorpions - Gold Ballads.wav
Пиковый уровень 98.6 % Качество диапазона 99.9 % CRC копии 13A29059 Копирование... OK
Ошибок не произошло
Конец отчёта

Dynamic Range Meter

foobar2000 1.1.15 / Dynamic Range Meter 1.1.1log date: 2013-02-18 16:55:12
--------------------------------------------------------------------------------Analyzed: Scorpions / Gold Ballads--------------------------------------------------------------------------------
DR Peak RMS Duration Track--------------------------------------------------------------------------------DR12 -0.63 dB -15.68 dB 6:31 01-Still Loving You (1984)DR12 -0.61 dB -18.31 dB 6:38 02-Holiday (1979)DR12 -2.29 dB -16.61 dB 3:54 03-When The Smoke is Going Down (1982)DR11 -0.12 dB -14.79 dB 5:01 04-Always Somewhere (1979)DR14 -0.38 dB -19.75 dB 6:17 05-Lady Starlight (1980)--------------------------------------------------------------------------------
Number of tracks: 5Official DR value: DR12
Samplerate: 44100 HzChannels: 2Bits per sample: 16Bitrate: 735 kbpsCodec: Monkey's Audio
Other forum [Profile] [PM]
Similar theme
Forum Topic Author Torrent Replies Last Post
./templates/default/images/folder_dl.gif Rock (Hard Rock, Glam Metal) [CD] KISS - New Best Ballads - 2000, WavPack (image+.cue), lossless Omen
1 | 0

0 | 1468

17

2014-08-14 11:00
Omen Latest
./templates/default/images/folder_dl.gif Rock (hard rock) [CD] Scorpions - 2 Compilations: Hot & Slow (The Best Of The Ballads) - 1991, Box Of Scorpions (3CD Set) - 2004, FLAC (image+.cue), lossless Omen
1 | 0

0 | 587

7

2015-02-27 06:00
Omen Latest
./templates/default/images/folder_dl.gif Rock (Hard Rock) Van Halen - The Very Best Of Van Halen [2CD] - 2004/2015, MP3, 320 kbps Omen
1 | 0

0 | 2770

24

2015-04-21 12:18
Omen Latest
./templates/default/images/folder_dl.gif Rock (Hard Rock) Midway - Kickstart Riot - 2015, MP3, 320 kbps Omen
1 | 0

0 | 1888

14

2015-04-22 21:15
Omen Latest
./templates/default/images/folder_dl.gif Rock (Hard Rock / Classic Rock / Blues Rock) Bad Touch - Half Way Home - 2015, MP3, 320 kbps Omen
1 | 0

0 | 1986

21

2015-05-06 18:05
Omen Latest
./templates/default/images/folder_dl.gif Rock (Hard Rock/Grunge) Buckcherry - Discography [11 Releases] - 1999 — 2015, MP3, 320 kbps Omen
0 | 1

0 | 2376

14

2015-08-15 21:00
Omen Latest
./templates/default/images/folder_dl.gif Rock (Hard Rock) [CD] Slash (feat. Myles Kennedy & The Conspirators) - Live at the Roxy 09.25.14 (2CD) - 2015, FLAC (tracks+.cue), lossless Omen
1 | 0

0 | 2111

21

2015-08-30 06:18
Omen Latest
Display posts from previous:    
Reply to topic

The time now is: Today 16:30

All times are GMT + 3 Hours



You cannot post new topics in this forum
You cannot reply to topics in this forum
You cannot edit your posts in this forum
You cannot delete your posts in this forum
You cannot vote in polls in this forum
You cannot attach files in this forum
You cannot download files in this forum