Today is a free download without charge Download

Ася (Александр Кулямин) (2011,Драма) SATRip

Reply to topic
 
Author
Message

Витек1 ®

Gender:

Longevity: 7 years 10 months

Posts: 451

Location: Житомир

Торрент-статистика

Post 18-Feb-2013 19:35

[Quote]

Ася - Русское название: Ася
Выпущено: Россия, киностудия "Леда"
Год выпуска: 2011
Жанр: Драма
Перевод: Не требуется (Русский)
Описание фильма:
Это история о маленькой девочке и её нелегкой жизни. Ведь она в свои семь лет уже круглая сирота. Ася помнит своих родителей очень хорошо, и как её любили мама и папа, и как им было вместе хорошо. Папа приходил вечером с работы, и они вместе садились ужинать, после чего папа рассказывал интересную сказку, а мама целовала ее в носик, и Ася ложилась спать. К сожалению, больше такого не повторилось - родителей Аси убили. А девочка после их гибели оказалась в огромном интернате среди множества детей с похожими судьбами. Но Ася выросла и стала известной художницей. Только вот раны от потери родителей не зажили, и когда стечение обстоятельств дает ей шанс отомстить за смерть родных, она не может его упустить...
Режиссер: Александр Кулямин
Актеры: Дарья Семенова, Алексей Королев, Юлия Сорокина, Александр Наумов, Ирина Чипиженко, Ксения Хаирова
Продолжительность: 01:31:41

Видеокодек: Xvid
Битрейт видео: ~1933 Kbit/s
Размер кадра: 704 x 384
Качество видео: SATRip
Аудиокодек: MP3, 2.0
Битрейт аудио: 192 Kbit/s

MediaInfo

Общее
Полное имя : D:\Торренты\Ася.2011.SATRip.avi
Формат : AVI
Формат/Информация : Audio Video Interleave
Размер файла : 1,37 Гбайт
Продолжительность : 1 ч. 31 м.
Общий поток : 2135 Кбит/сек
Программа кодирования : VirtualDubMod 1.5.10.2 (build 2540/release)
Библиотека кодирования : VirtualDubMod build 2540/release
Видео
Идентификатор : 0
Формат : MPEG-4 Visual
Профиль формата : Advanced [email protected]
Параметр BVOP формата : 2
Параметр QPel формата : Нет
Параметр GMC формата : Без точки перехода
Параметр матрицы формата : Default (MPEG)
Идентификатор кодека : XVID
Идентификатор кодека/Подсказка : XviD
Продолжительность : 1 ч. 31 м.
Битрейт : 1933 Кбит/сек
Ширина : 704 пикс.
Высота : 384 пикс.
Соотношение сторон : 16:9
Частота кадров : 25,000 кадр/сек
Цветовое пространство : YUV
Подвыборка цветности : 4:2:0
Битовая глубина : 8 бит
Тип развёртки : Прогрессивная
Метод сжатия : С потерями
Бит/(Пиксели*Кадры) : 0.286
Размер потока : 1,24 Гбайт (91%)
Библиотека кодирования : XviD 65
Аудио
Идентификатор : 1
Формат : MPEG Audio
Версия формата : Version 1
Профиль формата : Layer 3
Режим : Joint stereo
Расширение режима : MS Stereo
Идентификатор кодека : 55
Идентификатор кодека/Подсказка : MP3
Продолжительность : 1 ч. 31 м.
Вид битрейта : Постоянный
Битрейт : 192 Кбит/сек
Каналы : 2 канала
Частота : 48,0 КГц
Метод сжатия : С потерями
Размер потока : 126 Мбайт (9%)
Выравнивание : Соединение по промежуткам
Продолжительность промежутка : 40 мс. (1,00 видеокадр)
Время предзагрузки промежутка : 504 ms
Библиотека кодирования : LAME3.99r

Скриншоты

           

_________________
Скачал сам, дай скачать другому!!!Не забудь сказать -
Other forum [Profile] [PM]
Display posts from previous:    
Reply to topic

The time now is: Today 04:38

All times are GMT + 3 Hours



You cannot post new topics in this forum
You cannot reply to topics in this forum
You cannot edit your posts in this forum
You cannot delete your posts in this forum
You cannot vote in polls in this forum
You cannot attach files in this forum
You cannot download files in this forum