Today is a free download without charge Download

Билет на Vegas (Гор Киракосян) [2012.., Комедия, приключения, DVD9]

Reply to topic
 
Author
Message

Meshanik ®

Gender:

Longevity: 8 years 10 months

Posts: 3866

Location: Los Angeles

Торрент-статистика

Post 18-Feb-2013 16:29

[Quote]

Билет на Vegas
«Кто же сорвет джек-пот?»
- Оригинальное название: Билет на Vegas
Год выпуска: 2012
Производство: MG Media / Red Tie Films [Россия, США]
Жанр: Комедия, приключения
Продолжительность: 01:26:02
Перевод: Не требуется [Русский язык]
Субтитры: Отсутствуют-Режиссер: Гор Киракосян
Актеры: Михаил Галустян, Ингрид Олеринская, Иван Стебунов, Дэнни Трехо, Олег Тактаров, Владимир Яглыч, Наталья Ноздрина, Виталий Хаев, Ким Уитли, Гильермо Диас-Описание фильма:
На молодую парочку, Макса и Лизу, сваливается удача: они становятся победителями лотереи с выигрышем в пять миллионов долларов! Но получить деньги можно только на торжественной церемонии в столице порока, азартных игр и безудержного веселья, Лас Вегасе… Счастливчики не подозревают, что на большой куш есть и другие претенденты. Оказавшись в Америке, они попадают на крючок очень опасного, но невероятно обаятельного мошенника Гарика, вылитого Элвиса Пресли.-Дата мировой премьеры: 24 января 2013
Дата российской премьеры: 24 января 2013, «Парадиз»
Дата выхода DVD релиза: 19 февраля 2013, «Парадиз Медиа»
Дата выхода Blu-Ray релиза: 19 февраля 2013, «Парадиз Медиа»- -Возраст 16+ - зрителям, достигшим 16 лет-Качество видео: DVD9
Видео: MPEG-2, [email protected] (PAL 16:9), ~8000 kbps, Bit/Pixel: 0.772
Аудио 1: AC3 5.1, 384 kbps [Русский]
Аудио 2: AC3 2.0, 192 kbps [Русский]
-

Дополнительные материалы...

  • Скоро в кино

DVDInfo…

Title: Билет.на.Vegas.(2012).DVD9
Size: 5.46 Gb ( 5 727 920 KBytes ) - DVD-9
Enabled regions: 1, 2, 3, 4, 5, 6, 7, 8
VTS_01 :
Play Length: 01:26:02
Video: PAL 16:9 (720x576) VBR, Auto Pan&Scan
Audio:
Russian (Dolby AC3, 6 ch)
English (Dolby AC3, 2 ch)
VTS_02 :
Play Length: 00:02:15+00:02:19+00:01:59
Video: PAL 16:9 (720x576) VBR, Auto Pan&Scan
Audio:
Russian (Dolby AC3, 2 ch)
VTS_03 :
Play Length: 00:00:15
Video: PAL 4:3 (704x576) VBR
VTS_04 :
Play Length: 00:00:10+00:00:07
Video: PAL 16:9 (720x576) VBR, Auto Pan&Scan
Audio:
Russian (MPEG1, 2 ch)

MediaInfo...

Полное имя : D:\Билет.на.Vegas.(2012).DVD9\VIDEO_TS\VTS_01_1.VOB
Формат : MPEG-PS
Размер файла : 1001 Мбайт
Продолжительность : 16 м.
Общий поток : 8719 Кбит/сек
Видео
Идентификатор : 224 (0xE0)
Формат : MPEG Video
Версия формата : Version 2
Профиль формата : [email protected]
Параметр BVOP формата : Да
Параметр матрицы формата : Выборочная
Продолжительность : 16 м.
Битрейт : 8000 Кбит/сек
Ширина : 720 пикселей
Высота : 576 пикселей
Соотношение сторон : 16:9
Частота кадров : 25,000 кадров/сек
Стандарт вещания : PAL
Цветовое пространство : YUV
Субдискретизация насыщенности : 4:2:0
Битовая глубина : 8 бит
Тип развёртки : Чересстрочная
Порядок развёртки : Верхнее поле первое
Метод сжатия : С потерями
Бит/(Пиксели*Кадры) : 0.772
Размер потока : 915 Мбайт (91%)
Аудио #1
Идентификатор : 189 (0xBD)-128 (0x80)
Формат : AC-3
Формат/Информация : Audio Coding 3
Расширение режима : CM (complete main)
Параметр Endianness формата : Big
Режим смешивания : DVD-Video
Продолжительность : 16 м.
Вид битрейта : Постоянный
Битрейт : 384 Кбит/сек
Каналы : 6 каналов
Расположение каналов : Front: L C R, Side: L R, LFE
Частота : 48,0 КГц
Битовая глубина : 16 бит
Метод сжатия : С потерями
Размер потока : 44,1 Мбайт (4%)
Аудио #2
Идентификатор : 189 (0xBD)-129 (0x81)
Формат : AC-3
Формат/Информация : Audio Coding 3
Расширение режима : CM (complete main)
Параметр Endianness формата : Big
Режим смешивания : DVD-Video
Продолжительность : 16 м.
Вид битрейта : Постоянный
Битрейт : 192 Кбит/сек
Каналы : 2 канала
Расположение каналов : Front: L R
Частота : 48,0 КГц
Битовая глубина : 16 бит
Метод сжатия : С потерями
Размер потока : 22,0 Мбайт (2%)
Меню

Скриншоты меню...

       
Скриншоты:
       
       
Other forum [Profile] [PM]
Display posts from previous:    
Reply to topic

The time now is: Today 02:49

All times are GMT + 3 Hours



You cannot post new topics in this forum
You cannot reply to topics in this forum
You cannot edit your posts in this forum
You cannot delete your posts in this forum
You cannot vote in polls in this forum
You cannot attach files in this forum
You cannot download files in this forum