Today is a free download without charge Download

Билет на Vegas (Гор Киракосян) [2012.., Комедия, приключения, 1080p, BDRip]

Reply to topic
 
Author
Message

Meshanik ®

Gender:

Longevity: 9 years 4 months

Posts: 3866

Location: Los Angeles

Торрент-статистика

Post 18-Feb-2013 16:12

[Quote]

Билет на Vegas-«Кто же сорвет джек-пот?»- Русское название: Билет на Vegas
Год выпуска: 2012
Страна: Россия, США
Жанр: Комедия, Приключения
Продолжительность: 01:29:37
Перевод: Не требуется [Русский язык]
Субтитры: Нет-Дата мировой премьеры: 24 января 2013
Дата российской премьеры: 24 января 2013, «Парадиз»
Дата выхода DVD релиза: 19 февраля 2013, «Парадиз Медиа»
Дата выхода Blu-Ray релиза: 19 февраля 2013, «Парадиз Медиа»-Описание фильма:
На молодую парочку, Макса и Лизу, сваливается удача: они становятся победителями лотереи с выигрышем в пять миллионов долларов! Но получить деньги можно только на торжественной церемонии в столице порока, азартных игр и безудержного веселья, Лас Вегасе… Счастливчики не подозревают, что на большой куш есть и другие претенденты. Оказавшись в Америке, они попадают на крючок очень опасного, но невероятно обаятельного мошенника Гарика, вылитого Элвиса Пресли. Кто же сорвет джек-пот?-Режиссер: Гор Киракосян
Актеры: Михаил Галустян, Ингрид Олеринская, Иван Стебунов, Владимир Яглыч, Наталья Ноздрина, Дэнни Трехо, Олег Тактаров, Виталий Хаев, Ким Уитли, Гильермо Диас- -Качество видео: BDRip 1080p
Контейнер: MKV
Видеокодек: MPEG-4 AVC/H.264
Битрейт видео: ~12,0 Мбит/сек
Размер кадра: 1920x800
Аудиокодек: AC3
Аудио #1: Русский ( AC3 / 5.1 / 48 kHz / 448 Kbps )
-

MediaInfo

Общее
Уникальный идентификатор : 254075082170632208203612011551830718478 (0xBF2514B50B2C63ED9BAD246C2F9A380E)
Полное имя : Билет на Vegas.2012.BDRip.1080p.mkv
Формат : Matroska
Версия формата : Version 4 / Version 2
Размер файла : 7,97 Гбайт
Продолжительность : 1 ч. 29 м.
Общий поток : 12,7 Мбит/сек
Дата кодирования : UTC 2010-02-22 21:41:31
Программа кодирования : mkvmerge v5.9.0 ('On The Loose') built on Dec 9 2012 15:37:01
Библиотека кодирования : libebml v1.3.0 + libmatroska v1.4.0
Видео
Идентификатор : 1
Формат : AVC
Формат/Информация : Advanced Video Codec
Профиль формата : [url=mailto:[email protected]][email protected][/url]
Параметр CABAC формата : Да
Параметр ReFrames формата : 5 кадров
Идентификатор кодека : V_MPEG4/ISO/AVC
Продолжительность : 1 ч. 29 м.
Битрейт : 12,0 Мбит/сек
Ширина : 1920 пикселей
Высота : 800 пикселей
Соотношение сторон : 2,40:1
Режим частоты кадров : Постоянный
Частота кадров : 24,000 кадра/сек
Цветовое пространство : YUV
Субдискретизация насыщенности : 4:2:0
Битовая глубина : 8 бит
Тип развёртки : Прогрессивная
Бит/(Пиксели*Кадры) : 0.326
Размер потока : 7,53 Гбайт (94%)
Библиотека кодирования : x264 core 129 r2245 bc13772
Настройки программы : cabac=1 / ref=5 / deblock=1:-1:-1 / analyse=0x3:0x113 / me=dia / subme=1 / psy=1 / psy_rd=1.00:0.15 / mixed_ref=1 / me_range=16 / chroma_me=1 / trellis=1 / 8x8dct=1 / cqm=0 / deadzone=21,11 / fast_pskip=1 / chroma_qp_offset=-1 / threads=12 / lookahead_threads=2 / sliced_threads=0 / nr=0 / decimate=1 / interlaced=0 / bluray_compat=0 / constrained_intra=0 / bframes=3 / b_pyramid=2 / b_adapt=1 / b_bias=0 / direct=1 / weightb=1 / open_gop=0 / weightp=2 / keyint=250 / keyint_min=24 / scenecut=40 / intra_refresh=0 / rc_lookahead=40 / rc=crf / mbtree=1 / crf=18.0 / qcomp=0.60 / qpmin=0 / qpmax=69 / qpstep=4 / ip_ratio=1.40 / aq=1:1.00
Язык : Russian
Default : Да
Forced : Нет
Аудио
Идентификатор : 2
Формат : AC-3
Формат/Информация : Audio Coding 3
Расширение режима : CM (complete main)
Параметр Endianness формата : Big
Идентификатор кодека : A_AC3
Продолжительность : 1 ч. 29 м.
Вид битрейта : Постоянный
Битрейт : 448 Кбит/сек
Каналы : 6 каналов
Расположение каналов : Front: L C R, Side: L R, LFE
Частота : 48,0 КГц
Битовая глубина : 16 бит
Метод сжатия : С потерями
Размер потока : 287 Мбайт (4%)
Язык : Russian
Default : Да
Forced : Нет
-Скриншоты:
         
         
Other forum [Profile] [PM]
Display posts from previous:    
Reply to topic

The time now is: Today 15:43

All times are GMT + 3 Hours



You cannot post new topics in this forum
You cannot reply to topics in this forum
You cannot edit your posts in this forum
You cannot delete your posts in this forum
You cannot vote in polls in this forum
You cannot attach files in this forum
You cannot download files in this forum