Today is a free download without charge Download

Пятая стража / Сезон: 1 / Серии: 1-4 из 64 (Василий Пичул) [2013, Мистика, детектив, SATRip]

Reply to topic
 
Author
Message

Omen ®

Longevity: 9 years 1 month

Posts: 181086

Торрент-статистика

Post 18-Feb-2013 16:00

[Quote]

Пятая стража
Год выпуска: 2013
Производство: Россия
Жанр: Мистика, детектив
Продолжительность: 45
Режиссёр: Василий Пичул
В ролях: Кирилл Козаков, Майя Вознесенская, Егор Вадов, Олег Семисынов, Ирина Виноградова, Матвей Матвеев, Полина Манохина, Ростислав Бершауэр, Станислав Любшин, Регимантас Адомайтис
Описание: Вампир Феликс был отправлен силами Тьмы в ссылку в город Светлогорск. Графу Дракуле было предсказано, что падет он от руки своего соратника, вампира, и именно он, Феликс, мог прервать путь Графа Тьмы. Появление Феликса в Светлогорске сопровождали, чума, многие смерти и разорение. Немало бед навлек он на городок. Силы Света заточили Феликса в пещере, где он находился целых пять веков. И вот вампир вышел на свободу. Но теперь мысль о служении Тьме противна ему и Феликс выбрал Добро. В городке Светлогорске он открыл детективное агентство, подобрав команду из таких же как и он — не просто людей, а раскаявшихся грешников, которые готовы стоять на защите Света и Добра. Вместе они расследуют злодеяния, которые ежедневно совершаются силами тьмы и хранят покой города Светлогорска, которому суждено стать метом, где пройдет решающе сражение между силами Тьмы и Света…
СЭМПЛ
Качество: SATRip
Формат: AVI
Видео кодек: DivX
Аудио кодек: MP3
Видео: DivX 5 720x400 25.00fps 1 470 Kbps
Аудио: MPEG Audio Layer 3 48000Hz stereo

MI

General
Complete name : G:\ДЛЯ РАЗДАЧ\Пятая стража\Pyataya.strazha.04.SATRip.avi
Format : AVI
Format/Info : Audio Video Interleave
File size : 528 MiB
Duration : 45mn 5s
Overall bit rate : 1 638 Kbps
Writing library : VirtualDub build 32842/release
Video
ID : 0
Format : MPEG-4 Visual
Format settings, BVOP : Yes
Format settings, QPel : No
Format settings, GMC : No warppoints
Format settings, Matrix : Default (H.263)
Muxing mode : Packed bitstream
Codec ID : DX50
Codec ID/Hint : DivX 5
Duration : 45mn 5s
Bit rate : 1 500 Kbps
Width : 720 pixels
Height : 400 pixels
Display aspect ratio : 16:9
Frame rate : 25.000 fps
Color space : YUV
Chroma subsampling : 4:2:0
Bit depth : 8 bits
Scan type : Progressive
Bits/(Pixel*Frame) : 0.208
Stream size : 484 MiB (92%)
Writing library : DivX 6.8.5 (UTC 2009-08-20)
Audio
ID : 1
Format : MPEG Audio
Format version : Version 1
Format profile : Layer 3
Mode : Joint stereo
Mode extension : MS Stereo
Codec ID : 55
Codec ID/Hint : MP3
Duration : 45mn 5s
Bit rate mode : Constant
Bit rate : 128 Kbps
Channel(s) : 2 channels
Sampling rate : 48.0 KHz
Stream size : 41.3 MiB (8%)
Alignment : Split accross interleaves
Interleave, duration : 40 ms (1.00 video frame)
Interleave, preload duration : 500 ms

Скриншоты

Other forum [Profile] [PM]
Display posts from previous:    
Reply to topic

The time now is: Today 05:02

All times are GMT + 3 Hours



You cannot post new topics in this forum
You cannot reply to topics in this forum
You cannot edit your posts in this forum
You cannot delete your posts in this forum
You cannot vote in polls in this forum
You cannot attach files in this forum
You cannot download files in this forum