Today is a free download without charge Download

Билет на Vegas (Гор Киракосян) [2012.., Комедия, приключения, 1080p, BDRemux]

Reply to topic
 
Author
Message

Meshanik ®

Gender:

Longevity: 9 years 4 months

Posts: 3866

Location: Los Angeles

Торрент-статистика

Post 18-Feb-2013 15:02

[Quote]

Билет на Vegas
«Кто же сорвет джек-пот?»
- Оригинальное название: Билет на Vegas
Год выпуска: 2012
Производство: MG Media / Red Tie Films [Россия, США]
Жанр: Комедия, приключения
Продолжительность: 01:29:37
Перевод: Не требуется [Русский язык]
Субтитры: Вшитые отключаемые (PGS)
Язык субтитров: Английский
Режиссер: Гор Киракосян
Вролях: Михаил Галустян, Ингрид Олеринская, Иван Стебунов, Дэнни Трехо, Олег Тактаров, Владимир Яглыч, Наталья Ноздрина, Виталий Хаев, Ким Уитли, Гильермо Диас
Описание фильма:
На молодую парочку, Макса и Лизу, сваливается удача: они становятся победителями лотереи с выигрышем в пять миллионов долларов! Но получить деньги можно только на торжественной церемонии в столице порока, азартных игр и безудержного веселья, Лас Вегасе… Счастливчики не подозревают, что на большой куш есть и другие претенденты. Оказавшись в Америке, они попадают на крючок очень опасного, но невероятно обаятельного мошенника Гарика, вылитого Элвиса Пресли.
Дата мировой премьеры: 24 января 2013
Дата российской премьеры: 24 января 2013, «Парадиз»
Дата выхода DVD релиза: 19 февраля 2013, «Парадиз Медиа»
Дата выхода Blu-Ray релиза: 19 февраля 2013, «Парадиз Медиа»

Возраст 16+ - зрителям, достигшим 16 лет
Качество видео: BDRemux
Видео: MPEG4_AVC/H.264, 1920x1080, ~28330 kbps, 24 fps
Аудио 1: DTS-HD MA 5.1, 1893 kbps [Русский]
Аудио 2: AC3 2.0, 192 kbps [Русский]

MediaInfo...

Полное имя : D:\Билет.на.Vegas.[1080p].BDRemux.mkv
Формат : Matroska
Версия формата : Version 2
Размер файла : 19,1 Гбайт
Продолжительность : 1 ч. 29 м.
Режим общего битрейта : Переменный
Общий поток : 30,4 Мбит/сек
Название фильма : Release by Lelya_K for /*spam*/
Дата кодирования : UTC 2013-02-15 13:50:05
Программа кодирования : mkvmerge v5.7.0 ('The Whirlwind') built on Aug 7 2012 14:11:40
Библиотека кодирования : libebml v1.2.3 + libmatroska v1.3.0
Видео
Идентификатор : 1
Формат : AVC
Формат/Информация : Advanced Video Codec
Профиль формата : [url=mailto:[email protected]][email protected][/url]
Параметр CABAC формата : Да
Параметр ReFrames формата : 4 кадра
Параметр GOP формата : M=3, N=24
Идентификатор кодека : V_MPEG4/ISO/AVC
Продолжительность : 1 ч. 29 м.
Вид битрейта : Постоянный
Битрейт : 28,1 Мбит/сек
Номинальный битрейт : 30,0 Мбит/сек
Ширина : 1920 пикселей
Высота : 1080 пикселей
Соотношение сторон : 16:9
Режим частоты кадров : Постоянный
Частота кадров : 24,000 кадра/сек
Стандарт вещания : NTSC
Цветовое пространство : YUV
Субдискретизация насыщенности : 4:2:0
Битовая глубина : 8 бит
Тип развёртки : Прогрессивная
Бит/(Пиксели*Кадры) : 0.564
Размер потока : 17,6 Гбайт (92%)
Заголовок : Билет.на.Vegas.[1080p].BDRemux
Default : Да
Forced : Нет
Основные цвета : BT.709
Характеристики трансфера : BT.709
Коэффициенты матрицы : BT.709
Аудио #1
Идентификатор : 2
Формат : DTS
Формат/Информация : Digital Theater Systems
Профиль формата : MA / Core
Идентификатор кодека : A_DTS
Продолжительность : 1 ч. 29 м.
Вид битрейта : Переменный
Битрейт : 1561 Кбит/сек / 1510 Кбит/сек
Каналы : 6 каналов
Расположение каналов : Front: L C R, Side: L R, LFE
Частота : 48,0 КГц
Битовая глубина : 16 бит
Метод сжатия : Без потерь / Lossy
Заголовок : DTS-HD MA 5.1 / 1893 kbps
Язык : Russian
Default : Да
Forced : Нет
Аудио #2
Идентификатор : 3
Формат : AC-3
Формат/Информация : Audio Coding 3
Расширение режима : CM (complete main)
Параметр Endianness формата : Big
Идентификатор кодека : A_AC3
Продолжительность : 1 ч. 29 м.
Вид битрейта : Постоянный
Битрейт : 192 Кбит/сек
Каналы : 2 канала
Расположение каналов : Front: L R
Частота : 48,0 КГц
Битовая глубина : 16 бит
Метод сжатия : С потерями
Размер потока : 123 Мбайт (1%)
Заголовок : AC3 2.0 / 192 kbps
Язык : Russian
Default : Нет
Forced : Нет
Текст
Идентификатор : 4
Формат : PGS
Режим смешивания : zlib
Идентификатор кодека : S_HDMV/PGS
Идентификатор кодека/Информация : The same subtitle format used on BDs/HD-DVDs
Язык : English
Default : Нет
Forced : Нет
Меню
00:00:00.000 : ru:Chapter 00
00:08:05.500 : ru:Chapter 01
00:14:44.000 : ru:Chapter 02
00:26:09.875 : ru:Chapter 03
00:30:14.666 : ru:Chapter 04
00:39:56.041 : ru:Chapter 05
00:47:11.208 : ru:Chapter 06
00:55:43.708 : ru:Chapter 07
01:03:19.458 : ru:Chapter 08
01:09:52.208 : ru:Chapter 09
01:13:47.708 : ru:Chapter 10
01:17:54.375 : ru:Chapter 11

BV...

Скриншоты:
       
       
Other forum [Profile] [PM]
Display posts from previous:    
Reply to topic

The time now is: Today 14:35

All times are GMT + 3 Hours



You cannot post new topics in this forum
You cannot reply to topics in this forum
You cannot edit your posts in this forum
You cannot delete your posts in this forum
You cannot vote in polls in this forum
You cannot attach files in this forum
You cannot download files in this forum