Today is a free download without charge Download

Сказка о жадности (Борис Храневич) [1976, Рисованный мультфильм, DVDRip]

Reply to topic
 
Author
Message

Omen ®

Longevity: 7 years 11 months

Posts: 181087

Торрент-статистика

Post 18-Feb-2013 07:52

[Quote]

Сказка о жадности
Страна: СССР
Жанр: Рисованный мультфильм
Продолжительность: 00:08:32
Год выпуска: 1976
Русские субтитры: нет
Режиссёр: Борис Храневич
Роли озвучивали: Озвучивали: Л. Будник, Л. Козуб, З. Головко, В. Коршун, Л. Игнатенко
Описание: О тoм, как плохо быть жадным.
- Жадность учила детишек жить по принципу «ничего, никому - все себе одному» при этом становилась все больше и больше…
Доп. информация:
Студия: «Киевнаучфильм»
Художник-постановщик:Н.Чурилов
Композитор:Г.Сасько
Оператор:А.Гаврилов
Монтаж:С.Васильева
Релиз группы:
Качество: DVDRip
Формат: AVI
Видео: 704x528 (1.33:1), 25 fps, XviD build 65 ~2151 kbps avg, 0.23 bit/pixel
Аудио: 48 kHz, AC3 Dolby Digital, 2/0 (L,R) ch, ~192.00 kbps avg
Субтитры: нет

Подробные технические данные

Format : AVIFormat/Info : Audio Video InterleaveFile size : 144 MiBDuration : 8mn 32sOverall bit rate : 2 353 KbpsWriting application : VirtualDubModRus 1.5.10.2 (build 2542/release)Copyright : Rutracker.orgComment : DVDRip by dvdss
VideoID : 0Format : MPEG-4 VisualFormat profile : Advanced [email protected] settings, BVOP : 2Format settings, QPel : NoFormat settings, GMC : No warppointsFormat settings, Matrix : CustomCodec ID : XVIDCodec ID/Hint : XviDDuration : 8mn 32sBit rate : 2 151 KbpsWidth : 704 pixelsHeight : 528 pixelsDisplay aspect ratio : 5:4Original display aspect ratio : 4:3Frame rate : 25.000 fpsColor space : YUVChroma subsampling : 4:2:0Bit depth : 8 bitsScan type : ProgressiveCompression mode : LossyBits/(Pixel*Frame) : 0.231Stream size : 131 MiB (91%)Writing library : XviD 65
AudioID : 1Format : AC-3Format/Info : Audio Coding 3Mode extension : CM (complete main)Format settings, Endianness : BigCodec ID : 2000Duration : 8mn 32sBit rate mode : ConstantBit rate : 192 KbpsChannel(s) : 2 channelsChannel positions : Front: L RSampling rate : 48.0 KHzBit depth : 16 bitsCompression mode : LossyStream size : 11.7 MiB (8%)Alignment : Aligned on interleavesInterleave, duration : 40 ms (1.00 video frame)Interleave, preload duration : 512 ms

Скриншоты

Other forum [Profile] [PM]
Display posts from previous:    
Reply to topic

The time now is: Today 08:52

All times are GMT + 3 Hours



You cannot post new topics in this forum
You cannot reply to topics in this forum
You cannot edit your posts in this forum
You cannot delete your posts in this forum
You cannot vote in polls in this forum
You cannot attach files in this forum
You cannot download files in this forum