Today is a free download without charge Download

Смертельная гонка 3: Ад / Death Race: Inferno (Роэль Рейн / Roel Reiné) [2012.., США, Боевик, Триллер, Криминал, DVD5]

Reply to topic
 
Author
Message

Meshanik ®

Gender:

Longevity: 8 years 10 months

Posts: 3866

Location: Los Angeles

Торрент-статистика

Post 18-Feb-2013 02:26

[Quote]

Смертельная гонка 3: Ад / Death Race: Inferno- Русское название: Смертельная гонка 3: Ад
Оригинальное название: Death Race: Inferno
Год выпуска: 2012
Производство: США, Moonlighting Films South Africa
Жанр: Боевик, Триллер, Криминал
Продолжительность: 01:40:55
Перевод: Дублированный
Субтитры: Вшитые отключаемые
Язык субтитров: русский, английский, немецкий, итальянский, турецкий, болгарский, греческий, румынский, эстонский, латышский, литовский
Дата мировой премьеры: 22 января 2013
Дата выхода DVD релиза: 14 февраля 2013, «Двадцатый Век Фокс СНГ»
Дата выхода Blu-Ray релиза: 14 февраля 2013, «Двадцатый Век Фокс СНГ»
Режиссер: Роэль Рейн
Продюсер: Пол У. С. Андерсон, Джереми Болт, Майк Эллиот
В ролях: Дэнни Трехо, Винг Реймз, Люк Госс, Дюгрэй Скотт, Танита Феникс, Робин Шоу, Фредерик Колер, Таня ван Граан, Шон Майкл, Лэнгли Кирквуд
Описание фильма:
Карл Лукас по прозвищу Франкенштейн — раскаявшийся преступник, легендарный участник жестокого и кровавого тюремного соревнования под названием Смертельная гонка. Чтобы обрести долгожданную свободу, ему осталось одержать лишь одну победу, но эта гонка опасна как никогда, ведь на этот раз она проходит в пустыне!
Чтобы доказать свое превосходство, Лукасу предстоит справиться не только с безжалостными соперниками-гонщиками, но и с таинственными влиятельными врагами в смертоносной южно-африканской пустыне.

Качество видео: DVD5
Видео: MPEG-2, PAL 16:9 ([email protected]) 5 357 Kbps
Аудио 1: Английский (Dolby AC3, 6 ch) 384 Kbps
Аудио 2: Русский (Dolby AC3, 6 ch) 384 Kbps

Доп. информация

Обработано в DVDRemake Pro.+Photoshop+Muxman
Видео сжималось 30%.
Сжималось связкой DVD Rebuilder + CCE/Procoder в 5 проходов.
Удалёно: Deutsch (Dolby AC3, 6 ch), Italiano (Dolby AC3, 6 ch), Turkish (Dolby AC3, 6 ch), заставки и предупреждение.
Лишние кнопки затерты и закрыты.

Лог кодирования

-----------------
[10:54:18] Phase I, PREPARATION started.
- DVD-RB v1.28.2
- AVISYNTH 2.5.8.0
- CCE 1.0.1.9 encoder selected.
- Source: SMERTELINAYA.GONKA.3.2013.DVD5
- VTS_04: 3 046 486 sectors.
-- Scanning and writing .D2V & .AVS files
-- Processed 151 370 frames.
-- Building .AVS and .ECL files
- Reduction Level for DVD-5: 70,2%
- Overall Bitrate : 5 172Kbs
- Space for Video : 3 822 802KB
- HIGH/LOW/TYPICAL Bitrates: 5 255/1 229/5 172 Kbs
[10:56:32] Phase I, PREPARATION completed in 2 minutes.
- WARNING: Viewer/Editor settings are over target.
[10:56:52] Phase II ENCODING started
- Creating M2V for VTS_04 segment 0
- Creating M2V for VTS_04 segment 1
- Creating M2V for VTS_04 segment 2
- Creating M2V for VTS_04 segment 3
- Creating M2V for VTS_04 segment 4
- Creating M2V for VTS_04 segment 5
- Creating M2V for VTS_04 segment 6
- Creating M2V for VTS_04 segment 7
- Creating M2V for VTS_04 segment 8
- Creating M2V for VTS_04 segment 9
- Creating M2V for VTS_04 segment 10
- Creating M2V for VTS_04 segment 11
- Creating M2V for VTS_04 segment 12
- Creating M2V for VTS_04 segment 13
- Creating M2V for VTS_04 segment 14
- Creating M2V for VTS_04 segment 15
- Creating M2V for VTS_04 segment 16
- Creating M2V for VTS_04 segment 17
- Creating M2V for VTS_04 segment 18
- Creating M2V for VTS_04 segment 19
- Creating M2V for VTS_04 segment 20
- Extracting STILLS for VTS_04 segment 21
[12:01:32] Phase II ENCODING completed in 65 minutes.
[12:12:18] Phase III, REBUILD started.
- Copying IFO, BUP, and unaltered files...
- Processing VTS_04
- Reading/processing TMAP table...
- Rebuilding seg 0 VOBID 1 CELLID 1
- Rebuilding seg 1 VOBID 1 CELLID 2
- Rebuilding seg 2 VOBID 1 CELLID 3
- Rebuilding seg 3 VOBID 1 CELLID 4
- Rebuilding seg 4 VOBID 1 CELLID 5
- Rebuilding seg 5 VOBID 1 CELLID 6
- Rebuilding seg 6 VOBID 1 CELLID 7
- Rebuilding seg 7 VOBID 1 CELLID 8
- Rebuilding seg 8 VOBID 1 CELLID 9
- Rebuilding seg 9 VOBID 1 CELLID 10
- Rebuilding seg 10 VOBID 1 CELLID 11
- Rebuilding seg 11 VOBID 1 CELLID 12
- Rebuilding seg 12 VOBID 1 CELLID 13
- Rebuilding seg 13 VOBID 1 CELLID 14
- Rebuilding seg 14 VOBID 1 CELLID 15
- Rebuilding seg 15 VOBID 1 CELLID 16
- Rebuilding seg 16 VOBID 1 CELLID 17
- Rebuilding seg 17 VOBID 1 CELLID 18
- Rebuilding seg 18 VOBID 1 CELLID 19
- Rebuilding seg 19 VOBID 1 CELLID 20
- Rebuilding seg 20 VOBID 1 CELLID 21
- Updating NAVPACKS for VOBID_01
- Rebuilding seg 21 VOBID 2 CELLID 1
- Updating NAVPACKS for VOBID_02
- Updated VTS_C_ADT.
- Updated VTS_VOBU_ADMAP.
- Updated IFO: VTS_04_0.IFO
- Updating TMAP table...
- Correcting VTS Sectors...
[12:25:10] Phase III, REBUILD completed in 13 minutes.
Done.

MediaInfo

General
Complete name : D:\_Video\Smertelinaya.gonka.3.2013.DVD5\VIDEO_TS\VTS_04_1.VOB
Format : MPEG-PS
File size : 1 024 MiB
Duration : 22mn 54s
Overall bit rate : 6 250 Kbps
Video
ID : 224 (0xE0)
Format : MPEG Video
Format version : Version 2
Format profile : [email protected]
Format settings, BVOP : Yes
Format settings, Matrix : Custom
Duration : 22mn 54s
Bit rate mode : Variable
Bit rate : 5 357 Kbps
Maximum bit rate : 8 143 Kbps
Width : 720 pixels
Height : 576 pixels
Display aspect ratio : 16:9
Frame rate : 25.000 fps
Standard : PAL
Color space : YUV
Chroma subsampling : 4:2:0
Bit depth : 8 bits
Scan type : Interlaced
Scan order : Top Field First
Compression mode : Lossy
Bits/(Pixel*Frame) : 0.517
Stream size : 878 MiB (86%)
Audio #1
ID : 189 (0xBD)-128 (0x80)
Format : AC-3
Format/Info : Audio Coding 3
Mode extension : CM (complete main)
Muxing mode : DVD-Video
Duration : 22mn 54s
Bit rate mode : Constant
Bit rate : 384 Kbps
Channel(s) : 6 channels
Channel positions : Front: L C R, Side: L R, LFE
Sampling rate : 48.0 KHz
Bit depth : 16 bits
Compression mode : Lossy
Stream size : 62.9 MiB (6%)
Audio #2
ID : 189 (0xBD)-131 (0x83)
Format : AC-3
Format/Info : Audio Coding 3
Mode extension : CM (complete main)
Muxing mode : DVD-Video
Duration : 22mn 54s
Bit rate mode : Constant
Bit rate : 384 Kbps
Channel(s) : 6 channels
Channel positions : Front: L C R, Side: L R, LFE
Sampling rate : 48.0 KHz
Bit depth : 16 bits
Compression mode : Lossy
Stream size : 62.9 MiB (6%)
Menu

DVDInfo

Title: Bob
Size: 4.36 Gb ( 4 576 382 KBytes ) - DVD-5
Enabled regions: 1, 2, 3, 4, 5, 6, 7, 8
VTS_01 :
Play Length:
Video: PAL 16:9 (720x576) VBR, Auto Pan&Scan
Audio:
English (Dolby AC3, 6 ch)
VTS_02 :
Play Length:
Video: PAL 16:9 (720x576) VBR, Auto Pan&Scan
Audio:
English (Dolby AC3, 6 ch)
VTS_03 :
Play Length:
Video: PAL 16:9 (720x576) VBR, Auto Pan&Scan
VTS_04 :
Play Length: 01:40:55
Video: PAL 16:9 (720x576) VBR, Auto Pan&Scan
Audio:
English (Dolby AC3, 6 ch)
Deutsch (Dolby AC3, 6 ch)
Italiano (Dolby AC3, 6 ch)
Russian (Dolby AC3, 6 ch)
Subtitles:
English
Deutsch
Italiano
Russian
Turkish
Bulgarian
Greek
Romanian
Estonian
Latvian
Lithuanian
Deutsch
Italiano
Russian
Turkish

Cкриншот финального проекта

 

Скриншоты меню

       

Скриншоты:

       
       
Other forum [Profile] [PM]

Dracula

Longevity: 7 years 5 months

Posts: 11218

Торрент-статистика

Post 19-Feb-2013 18:06 (after 1 day 15 hours)

Топик был перенесен из форума Фильмы 2012 в форум Зарубежное кино (DVD)


Delia
 
Similar theme
Forum Topic Author Torrent Replies Last Post
./templates/default/images/folder_dl.gif Техническая и научно-популярная литература Юрген Роувер | Субмарины, несущие смерть. Победы подводных лодок стран гитлеровской Оси (2004) [PDF] Omen
1 | 0

0 | 742

2

2015-04-16 20:53
Omen Latest
./templates/default/images/folder_dl.gif Антология зарубежного кино Жажда смерти [Пенталогия] / Death Wish [Pentalogy] (Майкл Уиннер, Дж. Ли Томпсон, Аллан Голдштейн) [1974–1993, боевик, триллер, DVDRip] MVO, AVO, VO DED
1 | 0

1 | 3373

1

2015-11-13 22:52
DED Latest
Display posts from previous:    
Reply to topic

The time now is: Today 01:56

All times are GMT + 3 Hours



You cannot post new topics in this forum
You cannot reply to topics in this forum
You cannot edit your posts in this forum
You cannot delete your posts in this forum
You cannot vote in polls in this forum
You cannot attach files in this forum
You cannot download files in this forum