Today is a free download without charge Download

Бригада / Серии: 15 из 15 (Алексей Сидоров) [2002, Боевик, DVDRip]

Reply to topic
 
Author
Message

nsa1977 ®

Gender:

Longevity: 11 years

Posts: 1470

Location: Пенза

Торрент-статистика

Post 27-May-2011 23:58

[Quote]

-(Серии: 15 из 15 )-
Год выпуска: 2002 / Жанр: Боевик
Продолжительность: ~50 Минут Серия (750 Минут весь сериал)
Режиссер: Алексей Сидоров
-В ролях:
Сергей Безруков, Владимир Вдовиченков, Дмитрий Дюжев, Павел Майков, Андрей Панин, Екатерина Гусева, Леонид Куравлев, Николай Еременко мл., Александр Белявский, Валентина Теличкина, Алексей Кравченко, Дарья Повереннова, Ян Цапник, Светлана Чуйкина, Алексей Алексеев, Мария Аронова.
--Оф сайт --Описание:Это история четырех друзей детства, обычных московских парней, Саши Белого, Космоса, Пчелы и Фила, выросших в одном дворе. Друзья решили немного подзаработать, но незапланированное убийство вмиг перемешало все задуманное, поставив на кон их жизни. Ставка слишком высока, но отступать некуда. Теперь парни прокладывают себе дорогу в криминальном мире и волею судеб превращаются в одну из самых сплоченных и влиятельных группировок…-
-Доп. информация: релиз -
Данный релиз с PAL версии
--Качество: DVDRip
Формат: AVI
Видео кодек: XviD
Аудио кодек: AC3
Видео: 720x432 (1.67:1), 25 fps, XviD build 58 ~1296 kbps avg, 0.17 bit/pixel
Аудио: 48 kHz, AC3 Dolby Digital, 3/2 (L,C,R,l,r) + LFE ch, ~448.00 kbps avg
--

MI


Бригада.DVDRip-SVAT\Бригада.01.DVDRip-SVAT.avi
Format : AVI
Format/Info : Audio Video Interleave
File size : 640 MiB
Duration : 51mn 0s
Overall bit rate : 1 755 Kbps
Writing application : VirtualDubMod 1.5.10.3 | www.virtualdub-fr.org || (build 2550/release)
Writing library : VirtualDubMod build 2550/release
Video
ID : 0
Format : MPEG-4 Visual
Format profile : Advanced [email protected]
Format settings, BVOP : Yes
Format settings, QPel : No
Format settings, GMC : No warppoints
Format settings, Matrix : Default (MPEG)
Codec ID : XVID
Codec ID/Hint : XviD
Duration : 51mn 0s
Bit rate : 1 297 Kbps
Width : 720 pixels
Height : 432 pixels
Display aspect ratio : 1.667
Frame rate : 25.000 fps
Color space : YUV
Chroma subsampling : 4:2:0
Bit depth : 8 bits
Scan type : Progressive
Compression mode : Lossy
Bits/(Pixel*Frame) : 0.167
Stream size : 473 MiB (74%)
Writing library : XviD 58
Audio
ID : 1
Format : AC-3
Format/Info : Audio Coding 3
Mode extension : CM (complete main)
Codec ID : 2000
Duration : 51mn 0s
Bit rate mode : Constant
Bit rate : 448 Kbps
Channel(s) : 6 channels
Channel positions : Front: L C R, Side: L R, LFE
Sampling rate : 48.0 KHz
Bit depth : 16 bits
Compression mode : Lossy
Stream size : 163 MiB (26%)
Alignment : Split accross interleaves
Interleave, duration : 40 ms (1.00 video frame)
Interleave, preload duration : 500 ms

Трейлер

         
         

_________________


Last edited by nsa1977 on 2011-08-31 16:03; edited 1 time in total
Other forum [Profile] [PM]

romo777

Gender:

Longevity: 11 years

Posts: 24

Location: Пенза

Торрент-статистика

Post 28-May-2011 00:01 (after 3 minutes)

[Quote]

Вот спасибо за хороший сериал Surprised
Other forum [Profile] [PM]

SarDmitriy

Longevity: 10 years

Posts: 20

Торрент-статистика

Post 16-Jan-2012 16:35 (after 7 months 19 days)

[Quote]

Отличный сериал.
Когда будет долгожданное продолжение ?
Other forum [Profile] [PM]
Display posts from previous:    
Reply to topic

The time now is: Today 20:54

All times are GMT + 3 Hours



You cannot post new topics in this forum
You cannot reply to topics in this forum
You cannot edit your posts in this forum
You cannot delete your posts in this forum
You cannot vote in polls in this forum
You cannot attach files in this forum
You cannot download files in this forum