Today is a free download without charge Download

Муси-Пуси / Влюбленная женщина / Rubbeldiekatz / The Woman in Love (Детлев Бук / Detlev Buck) [2011, Германия, комедия, BDRip 720р] VO (Сергей Дидок) + Original (Ger) + Sub (Eng, Ger)

Reply to topic
 
Author
Message

Omen ®

Longevity: 8 years 5 months

Posts: 181087

Торрент-статистика

Post 17-Feb-2013 19:16

[Quote]

Муси-Пуси / Влюбленная женщина
Rubbeldiekatz / The Woman in Love
-Страна: Германия
Жанр: комедия
Год выпуска: 2011
Продолжительность: 01:53:23-Перевод: Одноголосый (закадровый) Сергей Дидок
Cубтитры: английские, немецкие (софтсаб)
Оригинальная аудиодорожка: немецкая-Режиссер: Детлев Бук / Detlev Buck
В ролях: Маттиас Швайгхефер, Александра Мария Лара, Детлев Бук, Максимилиан Брюкнер, Денис Москитто, Макс фон Тун, Макс Гиерманн, Санни Меллес, Сюзанна Борман, Милан Пешель-Описание: Незадачливый актёр театра Алекс по стечению обстоятельств получает главную женскую роль в крупном голливудском фильме. Всё осложняется ещё больше, когда он проводит ночь со своей будущей партнёршей по фильму Сарой и влюбляется в неё.- -Релиз группы: "КиноЮм"
Перевод: Антон Остудин
Озвучивание: Сергей Дидок
-Качество видео: BDRip 720р [MySilu]
Формат видео: MKV
Видео: 1280x692 (1.85:1), 23.976 fps, x264 4004 kbps, 0.189 bit/pixel
Аудио 1: 48 kHz, DTS, 3/2 (L,C,R,l,r) + LFE ch, 1510 kbps [Russian]
Аудио 2: 48 kHz, DTS, 3/2 (L,C,R,l,r) + LFE ch, 1510 kbps [German]
Дополнительно: Сохранены BluRay чаптеры
Сэмпл: http://multi-up.com/831968-

От создателей первой русскоязычной версии фильма

По поводу этого фильма мнения европейских кинокритиков разошлись лишь в одном: первая часть уверена, что эта лента, своего рода, "преемница" и со временем может занять достойное место рядом с такими фильмами, как "В джазе только девушки" и "Тутси". Вторая часть утверждает - это наоборот, качественный стёб над темой "Мужчина в женской одежде". Но все единодушно признали, что фильм получился *Must see*! Немцам действительно удалось снять яркую молодёжную комедию с юмором *на грани фола*. Досталось всем: американской мечте и образу жизни, европейской толерантности к однополой любви, голливудским *оскароносцам*, чванливой "богеме", Адольфу Гитлеру и даже точке "G". Кстати, о *богеме*: в одной из крохотных ролей снялся художник этого фильма - один из наиболее талантливых европейских дизайнеров Гуидо Мария Кретщмер. Не известно, когда и будет ли вообще официальный релиз в России и насколько *спецы* угробят искромётные диалоги на двух языках в этой отвязной комедии, точно знаем одно - фильм "улыбает по-взрослому".

MediaInfo

Complete name : Vljublennaja.zhenshhina.2011.P1.BDRip.720p.mkv
Format : Matroska
Format version : Version 4 / Version 2
File size : 5.56 GiB
Duration : 1h 53mn
Overall bit rate : 7 021 Kbps
Encoded date : UTC 2013-02-16 16:49:11
Writing application : mkvmerge v6.0.0 ('Coming Up For Air') built on Jan 20 2013 09:52:00
Writing library : libebml v1.3.0 + libmatroska v1.4.0
Video
ID : 1
Format : AVC
Format/Info : Advanced Video Codec
Format profile : [email protected]
Format settings, CABAC : Yes
Format settings, ReFrames : 8 frames
Codec ID : V_MPEG4/ISO/AVC
Duration : 1h 53mn
Bit rate : 4 004 Kbps
Width : 1 280 pixels
Height : 692 pixels
Display aspect ratio : 1.85:1
Frame rate mode : Constant
Frame rate : 23.976 fps
Color space : YUV
Chroma subsampling : 4:2:0
Bit depth : 8 bits
Scan type : Progressive
Bits/(Pixel*Frame) : 0.189
Stream size : 3.06 GiB (55%)
Writing library : x264 core 124 r2197 69a0443
Encoding settings : cabac=1 / ref=8 / deblock=1:-3:-3 / analyse=0x3:0x133 / me=umh / subme=10 / psy=1 / psy_rd=1.15:0.15 / mixed_ref=1 / me_range=32 / chroma_me=1 / trellis=2 / 8x8dct=1 / cqm=0 / deadzone=21,11 / fast_pskip=1 / chroma_qp_offset=-3 / threads=12 / sliced_threads=0 / nr=0 / decimate=1 / interlaced=0 / bluray_compat=0 / constrained_intra=0 / bframes=5 / b_pyramid=2 / b_adapt=2 / b_bias=0 / direct=3 / weightb=1 / open_gop=0 / weightp=2 / keyint=240 / keyint_min=23 / scenecut=60 / intra_refresh=0 / rc_lookahead=60 / rc=2pass / mbtree=1 / bitrate=4004 / ratetol=1.0 / qcomp=0.70 / qpmin=0 / qpmax=69 / qpstep=4 / cplxblur=20.0 / qblur=0.5 / vbv_maxrate=40000 / vbv_bufsize=40000 / nal_hrd=none / ip_ratio=1.20 / aq=1:1.00
Default : Yes
Forced : No
Audio #1
ID : 2
Format : DTS
Format/Info : Digital Theater Systems
Mode : 16
Format settings, Endianness : Big
Codec ID : A_DTS
Duration : 1h 53mn
Bit rate mode : Constant
Bit rate : 1 510 Kbps
Channel(s) : 6 channels
Channel positions : Front: L C R, Side: L R, LFE
Sampling rate : 48.0 KHz
Bit depth : 24 bits
Compression mode : Lossy
Stream size : 1.20 GiB (22%)
Title : [VO] DTS, 6 ch, 1510 kbps
Language : Russian
Default : Yes
Forced : No
Audio #2
ID : 3
Format : DTS
Format/Info : Digital Theater Systems
Mode : 16
Format settings, Endianness : Big
Codec ID : A_DTS
Duration : 1h 53mn
Bit rate mode : Constant
Bit rate : 1 509 Kbps
Channel(s) : 6 channels
Channel positions : Front: L C R, Side: L R, LFE
Sampling rate : 48.0 KHz
Bit depth : 24 bits
Compression mode : Lossy
Stream size : 1.20 GiB (21%)
Title : [Original] DTS, 6 ch, 1510 kbps
Language : German
Default : No
Forced : No
Text #1
ID : 4
Format : UTF-8
Codec ID : S_TEXT/UTF8
Codec ID/Info : UTF-8 Plain Text
Language : English
Default : No
Forced : No
Text #2
ID : 5
Format : UTF-8
Codec ID : S_TEXT/UTF8
Codec ID/Info : UTF-8 Plain Text
Language : German
Default : No
Forced : No
Menu
00:00:00.000 : :00:00:00.000
00:12:12.023 : :00:12:12.023
00:23:39.710 : :00:23:39.710
00:34:56.011 : :00:34:56.011
00:46:05.221 : :00:46:05.221
00:55:17.356 : :00:55:17.356
01:04:31.367 : :01:04:31.367
01:13:29.488 : :01:13:29.488
01:22:16.014 : :01:22:16.014
01:30:13.950 : :01:30:13.950
01:38:54.262 : :01:38:54.262
01:47:22.227 : :01:47:22.227

Скриншоты


Приятного просмотра!
Other forum [Profile] [PM]
Display posts from previous:    
Reply to topic

The time now is: Today 12:02

All times are GMT + 3 Hours



You cannot post new topics in this forum
You cannot reply to topics in this forum
You cannot edit your posts in this forum
You cannot delete your posts in this forum
You cannot vote in polls in this forum
You cannot attach files in this forum
You cannot download files in this forum