Today is a free download without charge Download

Прошлой ночью в Нью-Йорке / Last Night (Мэсси Таджедин / Massy Tadjedin) [2010 г.] (драма, мелодрама) [Blu-Ray, 1080p] (Dub)

Reply to topic
 
Author
Message

_Dante_ ®

Gender:

Longevity: 8 years 6 months

Posts: 466

Location: New York City

Торрент-статистика

Post 27-May-2011 00:44

[Quote]

Прошлой ночью в Нью-Йорке / Last Night Год выпуска: 2010
Мировая премьера: 18 сентября 2010
Российская премьера: 13 января 2011, «UPI»
Дата выхода DVD: 17 февраля 2011, «МОНОЛИТ»
Производство: США Франция Gaumont, Nick Wechsler Productions
Жанр: драма, мелодрама
Продолжительность: 01:32:30
Перевод: Профессиональный (дублированный) [Лицензия]
Режиссер: Мэсси Таджедин / Massy Tadjedin
В ролях: Кира Найтли, Сэм Уортингтон, Ева Мендес, Гийом Кане, Энсон Маунт, Гриффин Данн, Стефани Романов, Скотт Эдсит, Дэниэл Эрик Голд, Джастин Котсонас
Описание: Молодожены Майкл и Джоанна — красивы, успешны, живут в огромной квартире центра Манхеттена, но всего одна ночь заставит их усомниться друг в друге… За день до нее на вечеринке Джоанне всего на мгновение покажется, что Майкл неравнодушен к симпатичной Лауре, своей новой сотруднице, с которой ему предстоит отправиться в командировку… И когда на следующее утро неподалеку от дома Джоанна встретит своего бывшего возлюбленного, французского драматурга Алекса, она примет его предложение поужинать, не задумываясь… Так начнется долгая ночь, которая станет для Джоанны и Майкла настоящим испытанием в супружеской верности…
, ,
Источник/Качество: Blu-Ray
Формат: M2TS / BDAV
Стандарт разрешения: 1080p
Видео кодек:_MPEG4
Аудио кодек: DTS / AC3
Видео: MPEG-4 AVC Video , 29300 kbps, 24 fps, 1920*1080, 0.589 bit/pixel
Аудио 1: Rus; 48 kHz, AC3 Dolby Digital, 3/2 (L,C,R,l,r) + LFE ch, ~448.00 kbps avg
Аудио 2: Русский; DTS-HD MA, 6 ch, 2395 Кбит/с

Media Info

Полное имя : W:\Торрент WD\Proshloj.nochju.v.Nju.Jorke.2010.x264.Blu-Ray(1080p)\BDMV\STREAM\00005.m2ts
Формат : BDAV
Формат/Информация : Blu-ray Video
Размер файла : 21,7 Гбайт
Продолжительность : 1 ч. 32 м.
Общий поток : 33,8 Мбит/сек
Максимальный общий битрейт : 48,0 Мбит/сек
Видео
Идентификатор : 4113 (0x1011)
Идентификатор меню : 1 (0x1)
Формат : AVC
Формат/Информация : Advanced Video Codec
Профиль формата : [url=mailto:[email protected]][email protected][/url]
Параметр CABAC формата : Да
Параметр ReFrames формата : 4 кадры
Идентификатор кодека : 27
Продолжительность : 1 ч. 32 м.
Вид битрейта : Постоянный
Битрейт : 29,3 Мбит/сек
Ширина : 1920 пикс.
Высота : 1080 пикс.
Соотношение сторон : 16:9
Частота кадров : 24,000 кадр/сек
Стандарт вещания : NTSC
Цветовое пространство : YUV
Подвыборка цветности : 4:2:0
Битовая глубина : 8 бит
Тип развёртки : Прогрессивная
Бит/(Пиксели*Кадры) : 0.589
Размер потока : 19,8 Гбайт (91%)
Основные цвета : BT.709-5, BT.1361, IEC 61966-2-4, SMPTE RP177
Характеристики трансфера : BT.709-5, BT.1361
Коэффициенты матрицы : BT.709-5, BT.1361, IEC 61966-2-4 709, SMPTE RP177
Аудио #1
Идентификатор : 4352 (0x1100)
Идентификатор меню : 1 (0x1)
Формат : DTS
Формат/Информация : Digital Theater Systems
Профиль формата : MA / Core
Режим смешивания : Stream extension
Идентификатор кодека : 134
Продолжительность : 1 ч. 32 м.
Вид битрейта : Переменный
Битрейт : 1203 Кбит/сек / 1152 Кбит/сек
Канал(ы) : 6 канала(ов)
Расположение каналов : Front: L C R, Side: L R, LFE
Частота : 48,0 КГц
Битовая глубина : 16 бит
Метод сжатия : Без потерь / Lossy
Аудио #2
Идентификатор : 4353 (0x1101)
Идентификатор меню : 1 (0x1)
Формат : AC-3
Формат/Информация : Audio Coding 3
Расширение режима : CM (complete main)
Идентификатор кодека : 129
Продолжительность : 1 ч. 32 м.
Вид битрейта : Постоянный
Битрейт : 448 Кбит/сек
Канал(ы) : 6 канала(ов)
Расположение каналов : Front: L C R, Side: L R, LFE
Частота : 48,0 КГц
Битовая глубина : 16 бит
Метод сжатия : С потерями
Размер потока : 295 Мбайт (1%)
     

_________________
Other forum [Profile] [PM]
Display posts from previous:    
Reply to topic

The time now is: Today 20:14

All times are GMT + 3 Hours



You cannot post new topics in this forum
You cannot reply to topics in this forum
You cannot edit your posts in this forum
You cannot delete your posts in this forum
You cannot vote in polls in this forum
You cannot attach files in this forum
You cannot download files in this forum