Today is a free download without charge Download

Снайпер 4 / Sniper: Reloaded (Клаудио Фах / Claudio Fah) [2011 г.] (боевик, триллер, драма, военный) [Blu-Ray, 1080p] (MVO)

Reply to topic
 
Author
Message

_Dante_ ®

Gender:

Longevity: 8 years 6 months

Posts: 466

Location: New York City

Торрент-статистика

Post 27-May-2011 00:21

[Quote]

Снайпер 4 / Sniper: Reloaded -Год выпуска: 2011
Мировая премьера: 26 апреля 2011
Дата выхода DVD: 28 апреля 2011, «Columbia/Sony»
Производство: Германия ЮАР ApolloMovie Beteiligungs, Film Afrika Worldwide CC, Stage 6 Films
Жанр: боевик, триллер, драма, военный
Продолжительность: 01:31:22
Перевод: Профессиональный (многоголосый закадровый) [Лицензия]
Оригинальный аудиопоток: Английский
Режиссер: Клаудио Фах / Claudio Fah
В ролях: Чад Коллинз, Ричард Саммел, Анабель Райт, Билли Зейн, Патрик Листер, Конрад Кемп, Роб Фрюйтхоф
Описание: При работе с ООН в Демократической Республике Конго сержант морской пехоты Брэндон Беккет, сын известного снайпера Томаса Беккета, получает приказ спасти европейских фермеров с захваченных территорий повстанцев. Когда он и его люди прибыли на ферму, то таинственный снайпер из засады их обстрелял, ранив Беккета и убив всех остальных. С помощью бывшего протеже отца, снайпера инструктора Ричарда Миллера, Беккету придется научиться действовать и думать как снайпер чтобы разыскать вражеского снайпера.
Доп. информация: Трейлеры
,
Источник/Качество: Blu-Ray
Формат: M2TS / BDMV
Стандарт разрешения: 1080p
Видео кодек:_MPEG4
Аудио кодек: AC3 / DTS
Видео: MPEG-4 AVC Video, 1920x1080, 23.976 fps,23.922 Mbps avg, 0.512 bit/pixel
Аудио 1: Rus: 48 kHz, AC3 Dolby Digital, 3/2 (L,C,R,l,r) + LFE ch, ~448.00 kbps avg
Аудио 2: English: 48kHz, DTS-HD, 2621 kb/s (6 ch)
Субтитры: Russian [Forced], Ukrainian [Full-length], English

Media Info

Полное имя : W:\Торрент WD\SNIPER_RELOADED_BD_BLUEBIRD\BDMV\STREAM\00011.m2ts
Формат : BDAV
Формат/Информация : Blu-ray Video
Размер файла : 18,2 Гбайт
Продолжительность : 1 ч. 31 м.
Общий поток : 28,6 Мбит/сек
Максимальный общий битрейт : 48,0 Мбит/сек
Видео
Идентификатор : 4113 (0x1011)
Идентификатор меню : 1 (0x1)
Формат : AVC
Формат/Информация : Advanced Video Codec
Профиль формата : [url=mailto:[email protected]][email protected][/url]
Параметр CABAC формата : Да
Параметр ReFrames формата : 2 кадры
Идентификатор кодека : 27
Продолжительность : 1 ч. 31 м.
Вид битрейта : Переменный
Битрейт : 25,4 Мбит/сек
Ширина : 1920 пикс.
Высота : 1080 пикс.
Соотношение сторон : 16:9
Частота кадров : 23,976 кадр/сек
Цветовое пространство : YUV
Подвыборка цветности : 4:2:0
Битовая глубина : 8 бит
Тип развёртки : Прогрессивная
Бит/(Пиксели*Кадры) : 0.512
Размер потока : 16,2 Гбайт (89%)
Аудио #1
Идентификатор : 4352 (0x1100)
Идентификатор меню : 1 (0x1)
Формат : DTS
Формат/Информация : Digital Theater Systems
Профиль формата : MA / Core
Режим смешивания : Stream extension
Идентификатор кодека : 134
Продолжительность : 1 ч. 31 м.
Вид битрейта : Переменный
Битрейт : 1561 Кбит/сек / 1510 Кбит/сек
Канал(ы) : 6 канала(ов)
Расположение каналов : Front: L C R, Side: L R, LFE
Частота : 48,0 КГц
Битовая глубина : 24 бит
Метод сжатия : Без потерь / Lossy
Аудио #2
Идентификатор : 4353 (0x1101)
Идентификатор меню : 1 (0x1)
Формат : AC-3
Формат/Информация : Audio Coding 3
Расширение режима : CM (complete main)
Идентификатор кодека : 129
Продолжительность : 1 ч. 31 м.
Вид битрейта : Постоянный
Битрейт : 448 Кбит/сек
Канал(ы) : 6 канала(ов)
Расположение каналов : Front: L C R, Side: L R, LFE
Частота : 48,0 КГц
Битовая глубина : 16 бит
Метод сжатия : С потерями
Размер потока : 293 Мбайт (2%)

BDInfo

DISC INFO:
Disc Title: SNIPER_RELOADED_BD_BLUEBIRD
Disc Size: 22 342 143 893 bytes
Protection: AACS
BD-Java: Yes
BDInfo: 0.5.6
PLAYLIST REPORT:
Name: 00001.MPLS
Length: 1:31:22 (h:m:s)
Size: 19 592 712 192 bytes
Total Bitrate: 28,59 Mbps
VIDEO:
Codec Bitrate Description
----- ------- -----------
MPEG-4 AVC Video 23922 kbps 1080p / 23,976 fps / 16:9 / High Profile 4.1
AUDIO:
Codec Language Bitrate Description
----- -------- ------- -----------
DTS-HD Master Audio English 2621 kbps 5.1 / 48 kHz / 2621 kbps / 24-bit (DTS Core: 5.1 / 48 kHz / 1509 kbps / 24-bit)
Dolby Digital Audio Russian 448 kbps 5.1 / 48 kHz / 448 kbps / DN -4dB
SUBTITLES:
Codec Language Bitrate Description
----- -------- ------- -----------
Presentation Graphics English 28,322 kbps
Presentation Graphics English 32,972 kbps
Presentation Graphics Russian 0,304 kbps
Presentation Graphics Ukrainian 37,225 kbps
FILES:
Name Time In Length Size Total Bitrate
---- ------- ------ ---- -------------
00011.M2TS 0:00:00.000 1:31:22.477 19 592 712 192 28 590
         

_________________
Other forum [Profile] [PM]
Similar theme
Forum Topic Author Torrent Replies Last Post
./templates/default/images/folder_dl.gif Историческая литература Семен Федосеев, Алексей Ардашев | Учебник выживания снайпера. Стреляй редко, но метко! (2014) [FB2] Omen
1 | 0

0 | 1305

10

2014-09-01 11:46
Omen Latest
Display posts from previous:    
Reply to topic

The time now is: Today 20:03

All times are GMT + 3 Hours



You cannot post new topics in this forum
You cannot reply to topics in this forum
You cannot edit your posts in this forum
You cannot delete your posts in this forum
You cannot vote in polls in this forum
You cannot attach files in this forum
You cannot download files in this forum