Today is a free download without charge Download

Слушай свое сердце / Listen to Your Heart (Мэтт Томпсон / Matt Thompson) [2010, США, драма, мелодрама, WEB-DL 720p] DVO (VictoryFilms) + Sub Rus + Original Eng

Reply to topic
 
Author
Message

Omen ®

Longevity: 8 years 5 months

Posts: 181087

Торрент-статистика

Post 17-Feb-2013 15:12

[Quote]

Слушай свое сердце / Listen to Your Heart
Страна: США
Жанр: драма, мелодрама
Год выпуска: 2010
Продолжительность: 01:40:23
Перевод: Любительский (двухголосый закадровый) RG "VictoryFilms"
Cубтитры: русские (Dr.pro)
Оригинальная аудиодорожка: английский
Режиссер: Мэтт Томпсон / Matt Thompson
В ролях: Алексия Расмуссен, Кент Моран, Сибилл Шепард, Ширли Найт, Фрэнк Уотсон, Эрни Сабелла, Лиза Беннер, Эми Клер Локвуд, Мэттью Альбрехт, Люк Моран, Гия МакНайт, Аиша Кабиа
Описание: В Нью-Йорке автор песен очарован богатой слабослышащей девушкой из Гринвича, штат Коннектикут, которая по трагической случайности не слышит музыку, но она вдохновляет его писать. После того, как девушка влюбилась против воли своей матери, Ариана разрывается между двумя — матерью и любимым. На волоске висит выбор — на проживание и обеспечивание всеконтролируемой матерью или борьба за любовь, которая, если бы предоставилась возможность, просто изменила бы ее жизнь.
Сэмпл: http://multi-up.com/832180
Тип релиза: WEB-DL 720p (CtrlHD)
Контейнер: MKV
Видео: MPEG-4 AVC, 1280x694, 4128 кбит/сек, 23.976 fps
Аудио: 48 kHz, AC3 Dolby Digital, 2/0 (L,R) ch, ~192 kbps DVO RG "VictoryFilms"
Аудио 2: 48 kHz, AC3 Dolby Digital, 3/2 (L,C,R,l,r) + LFE ch, ~384 kbps original
Формат субтитров: softsub (SRT)

MediaInfo

СЛУШАЙ СВОЕ СЕРДЦЕ (DVO+SUB).2010.720p.WEB-DL.DD5.1.H.264-lord_i_74.mkv
Формат : Matroska
Версия формата : Version 2
Размер файла : 3,37 Гбайт
Продолжительность : 1 ч. 40 м.
Общий поток : 4799 Кбит/сек
Дата кодирования : UTC 2013-02-03 07:38:29
Программа кодирования : mkvmerge v5.0.1 ('Es ist Sommer') built on Oct 9 2011 11:55:43
Библиотека кодирования : libebml v1.2.2 + libmatroska v1.3.0
Видео
Идентификатор : 1
Формат : AVC
Формат/Информация : Advanced Video Codec
Профиль формата : [email protected]
Параметр CABAC формата : Нет
Параметр ReFrames формата : 2 кадра
Идентификатор кодека : V_MPEG4/ISO/AVC
Продолжительность : 1 ч. 40 м.
Битрейт : 4128 Кбит/сек
Ширина : 1280 пикс.
Высота : 694 пикс.
Соотношение сторон : 16:9
Частота кадров : 23,976 кадр/сек
Цветовое пространство : YUV
Подвыборка цветности : 4:2:0
Битовая глубина : 8 бит
Тип развёртки : Прогрессивная
Бит/(Пиксели*Кадры) : 0.194
Размер потока : 2,89 Гбайт (86%)
Заголовок : Listen.to.Your.Heart.2010.720p.WEB-DL.DD5.1.H.264-CtrlHD
Язык : English
Основные цвета : BT.709-5, BT.1361, IEC 61966-2-4, SMPTE RP177
Характеристики трансфера : BT.709-5, BT.1361
Коэффициенты матрицы : BT.709-5, BT.1361, IEC 61966-2-4 709, SMPTE RP177
Аудио #1
Идентификатор : 2
Формат : AC-3
Формат/Информация : Audio Coding 3
Расширение режима : CM (complete main)
Идентификатор кодека : A_AC3
Продолжительность : 1 ч. 40 м.
Вид битрейта : Постоянный
Битрейт : 192 Кбит/сек
Каналы : 2 канала
Расположение каналов : Front: L R
Частота : 48,0 КГц
Битовая глубина : 16 бит
Метод сжатия : С потерями
Размер потока : 138 Мбайт (4%)
Заголовок : DVO RG "VictoryFilms"
Язык : Russian
Аудио #2
Идентификатор : 3
Формат : AC-3
Формат/Информация : Audio Coding 3
Расширение режима : CM (complete main)
Идентификатор кодека : A_AC3
Продолжительность : 1 ч. 40 м.
Вид битрейта : Постоянный
Битрейт : 384 Кбит/сек
Каналы : 6 каналов
Расположение каналов : Front: L C R, Side: L R, LFE
Частота : 48,0 КГц
Битовая глубина : 16 бит
Метод сжатия : С потерями
Размер потока : 276 Мбайт (8%)
Язык : English
Текст
Идентификатор : 4
Формат : UTF-8
Идентификатор кодека : S_TEXT/UTF8
Идентификатор кодека/Информация : UTF-8 Plain Text
Заголовок : sub Dr.pro
Язык : Russian
Меню
00:00:00.000 : en:Chapter 1
00:10:00.000 : en:Chapter 2
00:20:00.000 : en:Chapter 3
00:30:00.000 : en:Chapter 4
00:40:00.000 : en:Chapter 5
00:50:00.000 : en:Chapter 6
01:00:00.000 : en:Chapter 7
01:10:00.000 : en:Chapter 8
01:20:00.000 : en:Chapter 9
01:30:00.000 : en:Chapter 10

Скриншоты

Other forum [Profile] [PM]
Display posts from previous:    
Reply to topic

The time now is: Today 10:38

All times are GMT + 3 Hours



You cannot post new topics in this forum
You cannot reply to topics in this forum
You cannot edit your posts in this forum
You cannot delete your posts in this forum
You cannot vote in polls in this forum
You cannot attach files in this forum
You cannot download files in this forum