Сегодня идет свободное скачивание без начисления Download

Гадюка (1965) [H.264] DVDRip

Ответить на тему
 
Автор
Сообщение

UndegraundMen ®

Стаж: 5 лет 7 месяцев

Сообщений: 25860

Торрент-статистика

Пост 17-Фев-2013 13:16

[Цитировать]

-Гадюка (1965) [H.264] DVDRip- Русское название: Гадюка
Производство: Киностудия им.А.Довженко
Год выпуска: 1965
Жанр: Военный, Драма
Описание фильма:
Драматическая история купеческой дочери, которая, став смелым борцом кавалерийского эскадрона Красной Армии, позже не смогла найти себя в мирной жизни.
Режиссер: Виктор Ивченко
Актеры: Нинель Мышкова, Борис Зайденберг, Иван Миколайчук, Раиса Недашковская, Александр Мовчан, Константин Степанков, Сергей Ляхницкий, Владимир Дальский, Анна Николаева, Мальвина Швидлер
Продолжительность: 01:39:32

Видеокодек: MPEG-4 AVC/H.264
Битрейт видео: ~1999 Кбит/сек
Размер кадра: 698x572
Качество видео: DVDRip
Аудиокодек: AC3 5.1
Битрейт аудио: 384 Кбит/сек

MediaInfo:

Общее
Уникальный идентификатор : 230602290584000708550928916397112923212 (0xAD7C62BB235CFDF9902C55F1B74B944C)
Полное имя : G:\!V\2013\Гадюка\Гадюка (1965) [H.264] DVDRip\Гадюка (1965) [H.264] DVDRip.mkv
Формат : Matroska
Версия формата : Version 2
Размер файла : 1,66 Гбайт
Продолжительность : 1 ч. 39 м.
Общий поток : 2385 Кбит/сек
Дата кодирования : UTC 2013-02-14 17:37:11
Программа кодирования : mkvmerge v5.8.0 ('No Sleep / Pillow') built on Sep 2 2012 15:37:04
Библиотека кодирования : libebml v1.2.3 + libmatroska v1.3.0
Видео
Идентификатор : 1
Формат : AVC
Формат/Информация : Advanced Video Codec
Профиль формата : [url=mailto:[email protected]][email protected][/url]
Параметр CABAC формата : Да
Параметр ReFrames формата : 6 кадров
Идентификатор кодека : V_MPEG4/ISO/AVC
Продолжительность : 1 ч. 39 м.
Битрейт : 1999 Кбит/сек
Ширина : 698 пикселей
Высота : 572 пикселя
Соотношение сторон : 4:3
Режим частоты кадров : Постоянный
Частота кадров : 25,000 кадров/сек
Цветовое пространство : YUV
Субдискретизация насыщенности : 4:2:0
Битовая глубина : 8 бит
Тип развёртки : Прогрессивная
Бит/(Пиксели*Кадры) : 0.200
Размер потока : 1,36 Гбайт (82%)
Библиотека кодирования : x264 core 129 r2230 1cffe9f
Настройки программы : cabac=1 / ref=6 / deblock=1:-1:-1 / analyse=0x3:0x113 / me=umh / subme=10 / psy=1 / psy_rd=1.00:0.15 / mixed_ref=1 / me_range=32 / chroma_me=1 / trellis=2 / 8x8dct=1 / cqm=0 / deadzone=21,11 / fast_pskip=1 / chroma_qp_offset=-3 / threads=6 / lookahead_threads=1 / sliced_threads=0 / nr=0 / decimate=1 / interlaced=0 / bluray_compat=0 / constrained_intra=0 / bframes=10 / b_pyramid=2 / b_adapt=2 / b_bias=0 / direct=1 / weightb=1 / open_gop=0 / weightp=2 / keyint=250 / keyint_min=25 / scenecut=40 / intra_refresh=0 / rc_lookahead=40 / rc=2pass / mbtree=1 / bitrate=1999 / ratetol=1.0 / qcomp=0.60 / qpmin=10 / qpmax=51 / qpstep=4 / cplxblur=20.0 / qblur=0.5 / ip_ratio=1.40 / aq=1:1.00
Default : Да
Forced : Нет
Аудио
Идентификатор : 2
Формат : AC-3
Формат/Информация : Audio Coding 3
Расширение режима : CM (complete main)
Параметр Endianness формата : Big
Идентификатор кодека : A_AC3
Продолжительность : 1 ч. 39 м.
Вид битрейта : Постоянный
Битрейт : 384 Кбит/сек
Каналы : 6 каналов
Расположение каналов : Front: L C R, Side: L R, LFE
Частота : 48,0 КГц
Битовая глубина : 16 бит
Метод сжатия : С потерями
Размер потока : 273 Мбайт (16%)
Default : Да
Forced : Нет
Скриншоты:
         
         
Вне форума [Профиль] [ЛС]
Показать сообщения:    
Ответить на тему

Текущее время: Сегодня 14:56

Часовой пояс: GMT + 3



Вы не можете начинать темы
Вы не можете отвечать на сообщения
Вы не можете редактировать свои сообщения
Вы не можете удалять свои сообщения
Вы не можете голосовать в опросах
Вы не можете прикреплять файлы к сообщениям
Вы не можете скачивать файлы